ML
     
  Уважаемый Гость!
Вы можете поддержать проект и зарегистрироваться у наших партнеров - онлайн-стратегия MyLands. При регистрации в игре Вы получите код, который сможете активировать после регистрации на pirat.ca и получить 1000 дублонов.

Ваш код:
a978488e62322cd72e113ab723b8a7fdc10eb9b9
 
     

По волчьему следу (Валериу Гажиу) [1976 г., Приключения, военный, TVRip]

Ответить на тему
 
Автор
Сообщение

Пост 28-Май-2013 17:46

[Q] 

cergo

Гроза морей

-По волчьему следу--
Производство: СССР, Молдова-фильм
Режиссер: Валериу Гажиу
Жанр: Приключения, военный
Год выпуска: 1976 г.
Продолжительность: 01:29:53
Российская премьера: 12 декабря 1977
В ролях: Евгений Лазарев, Анатолий Ромашин, Ирина Бразговка, Василе Зубку, Геннадий Сайфулин, Виктор Чутак, Владимир Шакало, Геннадий Чулков, Игорь Ледогоров, Алексей Головин-Описание: Фильм воспроизводит события лета 1921 года, когда Котовский во главе отдельной кавалерийской бригады завершил разгром антоновского контрреволюционного мятежа на Тамбовщине, уничтожив банду Матюхина-Сэмпл КиноПоиск
Качество видео: TVRip
Контейнер: AVI
Видео кодек: XviD
Аудио кодек: MP3
Видео: 704x320 (2.20:1), 25 fps, XviD MPEG-4 ~1798 kbps avg, 0.32 bit/pixel
Аудио: 48 kHz, MPEG Layer 3, 2 ch, ~128.00 kbps avg
Cубтитры: отсутствуют
Общее
Полное имя : D:\Архив\ФИЛЬМЫ\Po.Volchemu.Sledu.1976.XviD.TVRip.avi
Формат : AVI
Формат/Информация : Audio Video Interleave
Размер файла : 1,22 Гбайт
Продолжительность : 1 ч. 29 м.
Общий поток : 1936 Кбит/сек
Библиотека кодирования : VirtualDub-MPEG2 build 24600/release
Видео
Идентификатор : 0
Формат : MPEG-4 Visual
Профиль формата : Advanced [email protected]
Параметр BVOP формата : 2
Параметр QPel формата : Нет
Параметр GMC формата : Без точки перехода
Параметр матрицы формата : Default (H.263)
Режим смешивания : Сжатый битовый поток
Идентификатор кодека : XVID
Идентификатор кодека/Подсказка : XviD
Продолжительность : 1 ч. 29 м.
Битрейт : 1799 Кбит/сек
Ширина : 704 пикселя
Высота : 320 пикселей
Соотношение сторон : 2,2:1
Частота кадров : 25,000 кадров/сек
Цветовое пространство : YUV
Субдискретизация насыщенности : 4:2:0
Битовая глубина : 8 бит
Тип развёртки : Прогрессивная
Метод сжатия : С потерями
Бит/(Пиксели*Кадры) : 0.319
Размер потока : 1,13 Гбайт (93%)
Библиотека кодирования : XviD 1.2.1 (UTC 2008-12-04)
Аудио
Идентификатор : 1
Формат : MPEG Audio
Версия формата : Version 1
Профиль формата : Layer 3
Режим : Joint stereo
Расширение режима : MS Stereo
Идентификатор кодека : 55
Идентификатор кодека/Подсказка : MP3
Продолжительность : 1 ч. 29 м.
Вид битрейта : Постоянный
Битрейт : 128 Кбит/сек
Каналы : 2 канала
Частота : 48,0 КГц
Метод сжатия : С потерями
Размер потока : 82,3 Мбайт (7%)
Выравнивание : Разделение по промежуткам
Продолжительность промежутка : 40 мс. (1,00 видеокадр)
Время предзагрузки промежутка : 500 мс.
Download / Скачать

Хотите скачать бесплатно? Зарегистрируйтесь на сайте (ссылка на регистрацию). Pirat.ca - самый быстрый торрент трекер в рунете!

Как скачивать  ·   Что такое торрент  ·   Рейтинг и ограничения

Пост 28-Май-2013 20:52 (спустя 3 часа)

Топик был перенесен из форума Наше кино (Трюм) в форум Советское кино

ara1205
 
Показать сообщения:    
Ответить на тему

Текущее время: Сегодня 22:10

Часовой пояс: GMT + 4



Вы не можете начинать темы
Вы не можете отвечать на сообщения
Вы не можете редактировать свои сообщения
Вы не можете удалять свои сообщения
Вы не можете голосовать в опросах
Вы не можете прикреплять файлы к сообщениям
Вы не можете скачивать файлы

▼ Вниз