ML
     
  Уважаемый Гость!
Вы можете поддержать проект и зарегистрироваться у наших партнеров - онлайн-стратегия MyLands. При регистрации в игре Вы получите код, который сможете активировать после регистрации на pirat.ca и получить 1000 дублонов.

Ваш код:
193c38d0130f05c24de871678ea3ac181461757d
 
     

Люми (Владимир Брагин) [1991 г., фэнтези, ужасы, чёрная комедия, триллер, приключения, DVDRip]

Ответить на тему
 
Автор
Сообщение

Пост 03-Июн-2013 17:29

[Q] 

Амангельды

Люми Год выпуска: 1991
Страна: СССР
Жанр: фэнтези, ужасы, чёрная комедия, триллер, приключения
Продолжительность: 2:11:17
Кинокомпания: Камера
Сценарист и режиссер: Владимир Брагин
В ролях: Андрей Щербович-Вечер, Вита Гребнева, Надежда Бутырцева, Александр Потапов, Алексей Селивёрстов, Капитолина Ильенко, Александр Мохов, Алексей Малюков, Владимир Белоусов, Юрий Сенкевич
Описание: В лесу рядом с прибалтийским посёлком появилось страшное чудовище-оборотень. В старинных местных легендах его называют «Люми». Прямо с передачи Сенкевича из Москвы на хутор, где живет поэт Янис с женой Ингой и дочкой Марианной, приезжает в гости их старый друг — охотник и учёный Гумперт. У него в свою очередь есть своя семейная легенда — о его прадеде Якобе Гумперте, который охотился на Люми и победил. Оказывается, что легенды возникли далеко не на пустом месте…


Качество: DVDRip
Формат: AVI
Видео кодек: XviD
Аудио кодек: AC3
Видео: 688x528 (1.30:1), 25 fps, XviD build 50 ~2150 kbps avg, 0.24 bit/pixel
Аудио: 48 kHz, AC3 Dolby Digital, 2/0 (L,R) ch, ~192 kbps
Формат : AVI
Формат/Информация : Audio Video Interleave
Размер файла : 1,45 Гбайт
Продолжительность : 1 ч. 28 м.
Общий поток : 2353 Кбит/сек
Название фильма : Lumy_1991_DVDRip_ot_дилeтант
Режиссёр : дилeтант
Программа кодирования : VirtualDubMod 1.5.10.3 | www.virtualdub-fr.org || (build 2550/release)
Видео
Идентификатор : 0
Формат : MPEG-4 Visual
Профиль формата : Advanced [email protected]
Параметр BVOP формата : 2
Параметр QPel формата : Нет
Параметр GMC формата : Без точки перехода
Параметр матрицы формата : Выборочная
Идентификатор кодека : XVID
Идентификатор кодека/Подсказка : XviD
Продолжительность : 1 ч. 28 м.
Битрейт : 2151 Кбит/сек
Ширина : 688 пикс.
Высота : 528 пикс.
Соотношение сторон : 4:3
Частота кадров : 25,000 кадр/сек
Цветовое пространство : YUV
Подвыборка цветности : 4:2:0
Битовая глубина : 8 бит
Тип развёртки : Прогрессивная
Метод сжатия : С потерями
Бит/(Пиксели*Кадры) : 0.237
Размер потока : 1,33 Гбайт (91%)
Библиотека кодирования : XviD 1.2.1 (UTC 2008-12-04)
Аудио
Идентификатор : 1
Формат : AC-3
Формат/Информация : Audio Coding 3
Расширение режима : CM (complete main)
Идентификатор кодека : 2000
Продолжительность : 1 ч. 28 м.
Вид битрейта : Постоянный
Битрейт : 192 Кбит/сек
Канал(ы) : 2 канала(ов)
Расположение каналов : Front: L R
Частота : 48,0 КГц
Битовая глубина : 16 бит
Метод сжатия : С потерями
Размер потока : 121 Мбайт (8%)
Выравнивание : Разделение по промежуткам
Продолжительность промежутка : 40 мс. (1,00 видеокадр)
Время предзагрузки промежутка : 500 ms
"Я ведь не убийца, я просто хочу знать - почему?.. Люми - это большая тайна. Я найду ихъ и спрошу - можетъ и они что-нибудь знаютъ о человеке? И если мы попросимъ ихъ, то они простятъ насъ."(Яковъ Гумпертъ, 1891 годъ)
Download / Скачать

Хотите скачать бесплатно? Зарегистрируйтесь на сайте (ссылка на регистрацию). Pirat.ca - самый быстрый торрент трекер в рунете!

Как скачивать  ·   Что такое торрент  ·   Рейтинг и ограничения



Последний раз редактировалось: Амангельды (2014-03-29 10:29), всего редактировалось 1 раз

Пост 03-Июн-2013 19:22 (спустя 1 час 52 минуты)

Топик был перенесен из форума Наше кино (Трюм) в форум Советское кино

ara1205
 

Nitro

Корсар

Пост 03-Июн-2013 23:32 (спустя 6 часов)

[Q] 

Вот она "Правдивая история Красной шапочки"
[Профиль]  [ЛС] 

Silent_Demon

Морской Волк

Пост 03-Июн-2013 23:54 (спустя 21 минута)

[Q] 



_________________
Я долго искал соратников среди ангелов и, прожив свою грешную жизнь, осознал себя в окружении демонов.
[Профиль]  [ЛС] 

Принц Датский

Корсар

Пост 04-Июн-2013 00:24 (спустя 30 минут)

[Q] 

Мохов там пытался героя боевика изобразить af

_________________
[Профиль]  [ЛС] 

kmv01

Гроза морей

Пост 04-Июн-2013 13:12 (спустя 12 часов)

[Q] 

А на раздаче - никого...
[Профиль]  [ЛС] 

DellFlyer

Флибустьер

165

Пост 04-Июн-2013 14:18 (спустя 1 час 5 минут)

[Q] 

Раздаю до вечера...
[Профиль]  [ЛС] 

Амангельды ®

35490

Пост 04-Июн-2013 18:01 (спустя 3 часа)

[Q] 

Nitro, так и было на самом деле...
Принц Датский, всем стоять!!! Лицом к стене, РУКИ ЗА СПИНУ, ПОЖАРНАЯ ИНСПЕКЦИЯ... ag

_________________

Товарищ, верь, пройдет она,
Так называемая гласность.
И вот тогда госбезопасность
Припомнит ваши имена
Раздачи от Амангельды - ТЫНЦ
[Профиль]  [ЛС] 

Амангельды ®

35490

Пост 29-Мар-2014 10:30 (спустя 9 месяцев 24 дня)

[Q] 

Скрины поправлены... Сорри за неудобства...

_________________

Товарищ, верь, пройдет она,
Так называемая гласность.
И вот тогда госбезопасность
Припомнит ваши имена
Раздачи от Амангельды - ТЫНЦ
[Профиль]  [ЛС] 
Показать сообщения:    
Ответить на тему

Текущее время: Сегодня 18:08

Часовой пояс: GMT + 4



Вы не можете начинать темы
Вы не можете отвечать на сообщения
Вы не можете редактировать свои сообщения
Вы не можете удалять свои сообщения
Вы не можете голосовать в опросах
Вы не можете прикреплять файлы к сообщениям
Вы не можете скачивать файлы

▼ Вниз