ML
     
  Уважаемый Гость!
Вы можете поддержать проект и зарегистрироваться у наших партнеров - онлайн-стратегия MyLands. При регистрации в игре Вы получите код, который сможете активировать после регистрации на pirat.ca и получить 1000 дублонов.

Ваш код:
47bfc18b89c74e4ae0d974e9b6943639e2bff08e
 
     

Всадник без головы (Владимир Вайншток) [1973 г., приключения, BDRip-AVC]

Ответить на тему
 
Автор
Сообщение

Пост 07-Июл-2013 19:16

[Q] 

Woitler

Корсар

-Всадник без головы-- Производство: СССР, Куба
Год выпуска: 1973 г.
Жанр: приключения
Продолжительность: 01:34:35
Мировая премьера: 25 июля 1973
Дата выхода DVD: 13 апреля 2010
Перевод: Не требуется
Режиссер: Владимир Вайншток-В ролях: Людмила Савельева, Олег Видов, Аарне Юкскюла, Александр Милокостый, Эслинда Нуньес, Иван Петров, Алехандро Луго, Энрике Сантиэстебан, Мария Фара-Описание: Фильм снят по мотивам одноимённого романа Томаса Майн Рида. В семье влиятельного владельца гасиенды Каса дель Корво происходит трагедия. Бесследно исчезает его сын. Власти и отец семейства подозревают в причастности к этому мустангера Мориса Джеральда. Дело осложняется тем, что в молодого человека влюблена дочь плантатора, красавица Луиза Пойндекстер. Морису грозит смертная казнь.-
Качество видео: BDRip-AVC
Контейнер: MKV
Видео кодек: MPEG4
Аудио кодек: AC3
Видео: x264 ([email protected]); Анаморф [email protected], 2.35:1, 25.000 fps, 2012 Kbps, 0.258
Аудио: AC-3; 16 bit 48 Khz; 2ch 192 Kbps
Cубтитры: отсутствуют
General
Unique ID : 192634147499012541711258867109877779947 (0x90EBFCBF8F8F7A7487BA4883B3280DEB)
Complete name : Всадник без головы.1973.mkv
Format : Matroska
Format version : Version 2
File size : 1.46 GiB
Duration : 1h 34mn
Overall bit rate : 2 206 Kbps
Encoded date : UTC 2012-07-14 14:43:55
Writing application : mkvmerge v5.7.0 ('The Whirlwind') built on Jul 8 2012 20:08:51
Writing library : libebml v1.2.3 + libmatroska v1.3.0
Video
ID : 1
Format : AVC
Format/Info : Advanced Video Codec
Format profile : [email protected]
Format settings, CABAC : Yes
Format settings, ReFrames : 16 frames
Codec ID : V_MPEG4/ISO/AVC
Duration : 1h 34mn
Bit rate : 2 012 Kbps
Width : 716 pixels
Height : 436 pixels
Display aspect ratio : 2.35:1
Original display aspect ratio : 2.35:1
Frame rate : 25.000 fps
Color space : YUV
Chroma subsampling : 4:2:0
Bit depth : 8 bits
Scan type : Progressive
Bits/(Pixel*Frame) : 0.258
Stream size : 1.30 GiB (89%)
Title : Всадник без головы.1973
Writing library : x264 core 125 r2200 999b753
Encoding settings : cabac=1 / ref=16 / deblock=1:-1:-1 / analyse=0x3:0x133 / me=umh / subme=11 / psy=1 / psy_rd=1.10:0.20 / mixed_ref=1 / me_range=48 / chroma_me=1 / trellis=2 / 8x8dct=1 / cqm=0 / deadzone=21,11 / fast_pskip=0 / chroma_qp_offset=-3 / threads=12 / lookahead_threads=2 / sliced_threads=0 / nr=0 / decimate=0 / interlaced=0 / bluray_compat=0 / constrained_intra=0 / bframes=12 / b_pyramid=2 / b_adapt=2 / b_bias=0 / direct=3 / weightb=1 / open_gop=0 / weightp=2 / keyint=250 / keyint_min=25 / scenecut=40 / intra_refresh=0 / rc_lookahead=60 / rc=2pass / mbtree=1 / bitrate=2012 / ratetol=1.0 / qcomp=0.60 / qpmin=0 / qpmax=69 / qpstep=4 / cplxblur=20.0 / qblur=0.5 / vbv_maxrate=50000 / vbv_bufsize=62500 / nal_hrd=none / ip_ratio=1.40 / aq=2:1.10
Language : Russian
Default : Yes
Forced : No
Color primaries : BT.470-6 System B, BT.470-6 System G, BT.601-6 625, BT.1358 625, BT.1700 625 PAL, BT.1700 625 SECAM
Transfer characteristics : BT.470-6 System B, BT.470-6 System G
Matrix coefficients : BT.470-6 System B, BT.470-6 System G, BT.601-6 625, BT.1358 625, BT.1700 625 PAL, BT.1700 625 SECAM, IEC 61966-2-4 601
Audio
ID : 2
Format : AC-3
Format/Info : Audio Coding 3
Mode extension : CM (complete main)
Codec ID : A_AC3
Duration : 1h 34mn
Bit rate mode : Constant
Bit rate : 192 Kbps
Channel(s) : 2 channels
Channel positions : Front: L R
Sampling rate : 48.0 KHz
Bit depth : 16 bits
Compression mode : Lossy
Stream size : 130 MiB (9%)
Title : Оригинал AC-3; 16 bit 48 Khz; 2ch 192 Kbps; CBR.
Language : Russian
Default : Yes
Forced : No
Download / Скачать

Хотите скачать бесплатно? Зарегистрируйтесь на сайте (ссылка на регистрацию). Pirat.ca - самый быстрый торрент трекер в рунете!

Как скачивать  ·   Что такое торрент  ·   Рейтинг и ограничения

Пост 07-Июл-2013 19:56 (спустя 39 минут)

Топик был перенесен из форума Зарубежное Кино (Трюм) в форум Советское кино

erchine
 

Alien2000

Легенда

Пост 13-Июл-2013 00:11 (спустя 5 дней)

[Q] 

Раздайте пожалуйста.
[Профиль]  [ЛС] 

Woitler ®

Корсар

650

Пост 13-Июл-2013 02:01 (спустя 1 час 50 минут)

[Q] 

394970Раздайте пожалуйста.
Прошу прощения, были проблемы с Интернетом. Встал на раздачу.
[Профиль]  [ЛС] 

Alien2000

Легенда

Пост 16-Июл-2013 02:56 (спустя 3 дня)

[Q] 

49% второй день
Раздайте - помогу с раздачей.
[Профиль]  [ЛС] 

vinylovi4

Гроза морей

Пост 27-Июл-2013 00:29 (спустя 10 дней)

[Q] 

в детстве смотрел, очень страшно было :) с радостью пересмотрю, спасибо.
[Профиль]  [ЛС] 

СерКат

Корсар

Пост 04-Мар-2014 11:31 (спустя 7 месяцев 8 дней)

[Q] 

помню в детстве стремно было при просмотре,надо освежить память,спасибо
[Профиль]  [ЛС] 
Показать сообщения:    
Ответить на тему

Текущее время: Сегодня 07:05

Часовой пояс: GMT + 4



Вы не можете начинать темы
Вы не можете отвечать на сообщения
Вы не можете редактировать свои сообщения
Вы не можете удалять свои сообщения
Вы не можете голосовать в опросах
Вы не можете прикреплять файлы к сообщениям
Вы не можете скачивать файлы

▼ Вниз