ML
     
  Уважаемый Гость!
Вы можете поддержать проект и зарегистрироваться у наших партнеров - онлайн-стратегия MyLands. При регистрации в игре Вы получите код, который сможете активировать после регистрации на pirat.ca и получить 1000 дублонов.

Ваш код:
73640f24f8a0f579e128ea7346fd2db2b1009143
 
     

Ущелье духов (Сергей Нилов) [1991 г., Боевик, VHSRip]

Ответить на тему
 
Автор
Сообщение

Пост 05-Авг-2013 19:31

[Q] 

Агент 47

-Ущелье духов-- Производство: Россия, Туркмения, Мосфильм, Туркменфильм
Режиссер: Сергей Нилов
Жанр: Боевик
Год выпуска: 1991 г.
Продолжительность: 01:21:34
В ролях: Александр Казаков, Вадим Степашкин, Владислав Толдыков, Виктор Павлюченков, Денис Банников, Мулькаман Оразов, Вадим Пожарский-Описание: Фильм о последней военной операции в Афганистане. Командир разведроты Грачев и его бойцы пытаются осмыслить суть этой странной и страшной войны…-Качество видео: VHSRip
Контейнер: AVI
Видео кодек: XviD
Аудио кодек: MP3
Видео: Xvid 720x576 30fps 1500kbps
Аудио: MP3 48000Hz stereo 224kbps
Cубтитры: отсутствуют
General
Complete name :Ущелье духов.avi
Format : AVI
Format/Info : Audio Video Interleave
File size : 1 014 MiB
Duration : 1h 21mn
Overall bit rate : 1 738 Kbps
Video
ID : 0
Format : xvid
Codec ID : xvid
Duration : 1h 21mn
Bit rate : 1 500 Kbps
Width : 720 pixels
Height : 576 pixels
Display aspect ratio : 5:4
Frame rate : 30.000 fps
Standard : PAL
Bits/(Pixel*Frame) : 0.121
Stream size : 875 MiB (86%)
Audio
ID : 1
Format : MPEG Audio
Format version : Version 1
Format profile : Layer 3
Mode : Joint stereo
Codec ID : 55
Codec ID/Hint : MP3
Duration : 1h 21mn
Bit rate mode : Constant
Bit rate : 224 Kbps
Channel(s) : 2 channels
Sampling rate : 48.0 KHz
Compression mode : Lossy
Stream size : 131 MiB (13%)
Alignment : Aligned on interleaves
Interleave, duration : 24 ms (0.72 video frame)
Writing library : LAME3.97 (beta)
Download / Скачать

Хотите скачать бесплатно? Зарегистрируйтесь на сайте (ссылка на регистрацию). Pirat.ca - самый быстрый торрент трекер в рунете!

Как скачивать  ·   Что такое торрент  ·   Рейтинг и ограничения

Показать сообщения:    
Ответить на тему

Текущее время: Сегодня 22:37

Часовой пояс: GMT + 4



Вы не можете начинать темы
Вы не можете отвечать на сообщения
Вы не можете редактировать свои сообщения
Вы не можете удалять свои сообщения
Вы не можете голосовать в опросах
Вы не можете прикреплять файлы к сообщениям
Вы не можете скачивать файлы

▼ Вниз