ML
     
  Уважаемый Гость!
Вы можете поддержать проект и зарегистрироваться у наших партнеров - онлайн-стратегия MyLands. При регистрации в игре Вы получите код, который сможете активировать после регистрации на pirat.ca и получить 1000 дублонов.

Ваш код:
8b752b428cf60a012c159dcae592cd1392170115
 
     

Безымянная звезда (Михаил Козаков) [1978 г., комедия, мелодрама, DVDRip]

Ответить на тему
 
Автор
Сообщение

Пост 17-Авг-2013 23:31

[Q] 

Фригмунд Зейд

Лоцман

-Безымянная звезда-- Производство: СССР
Режиссер: Михаил Козаков
Жанр: комедия, мелодрама
Год выпуска: 1978 г.
Продолжительность: 02:08:25
В ролях: Анастасия Вертинская, Михаил Козаков, Игорь Костолевский, Григорий Лямпе, Ирина Савина, Михаил Светин, Алла Будницкая, Илья Рутберг, Александр Пятков, Светлана Крючкова-Описание: Действие фильма происходит в Румынии в тридцатых годах прошлого столетия. На провинциальном вокзале никому ненужного города внезапно останавливается железнодорожный экспресс, который не должен здесь останавливаться и собственно никогда не останавливался. Причиной столь экстренного торможения оказалась безбилетница Мона, направляющаяся в Бухарест. Местный управляющий станцией ошарашен произошедшим, потому что обычно тут постоянный штиль и ничего не происходит. Свидетелем инцидента также стал городской преподаватель космологии Марин Мирою. Несмотря на то, что у девушки не было денег, выглядит она очень дорого и представительно. Марин предлагает провести ночь в его скромном жилище, в то время как он сам переночует у друга. Однако Мона проникается к вежливому и обходительному учителю симпатией и просит его остаться.-Качество видео: DVDRip
Контейнер: AVI
Видео кодек: XviD
Аудио кодек: AC3
Видео: 704х528(4:3), 1978 Кбит/сек, 25 fps, 0.213 bit/pixel
Аудио: 448 Кбит/сек, 2 канала, 48 kHz
Cубтитры: отсутствуют
Общее
Полное имя : H:\Bezimyanaya_zvezda\Bezimyanaya_zvezda_01_DVDRip[pirat.ca].avi
Формат : AVI
Формат/Информация : Audio Video Interleave
Размер файла : 1,07 Гбайт
Продолжительность : 1 ч. 2 м.
Общий поток : 2436 Кбит/сек
Программа кодирования : VirtualDubModRus 1.5.10.2 (build 2542/release)
Библиотека кодирования : VirtualDubMod build 2542/release
Видео
Идентификатор : 0
Формат : MPEG-4 Visual
Профиль формата : Advanced [email protected]
Параметр BVOP формата : 2
Параметр QPel формата : Нет
Параметр GMC формата : Без точки перехода
Параметр матрицы формата : Default (MPEG)
Режим смешивания : Сжатый битовый поток
Идентификатор кодека : XVID
Идентификатор кодека/Подсказка : XviD
Продолжительность : 1 ч. 2 м.
Битрейт : 1979 Кбит/сек
Ширина : 704 пикселя
Высота : 528 пикселей
Соотношение сторон : 4:3
Частота кадров : 25,000 кадров/сек
Цветовое пространство : YUV
Субдискретизация насыщенности : 4:2:0
Битовая глубина : 8 бит
Тип развёртки : Прогрессивная
Метод сжатия : С потерями
Бит/(Пиксели*Кадры) : 0.213
Размер потока : 889 Мбайт (81%)
Библиотека кодирования : XviD 1.2.1 (UTC 2008-12-04)
Аудио
Идентификатор : 1
Формат : AC-3
Формат/Информация : Audio Coding 3
Расширение режима : CM (complete main)
Параметр Endianness формата : Big
Идентификатор кодека : 2000
Продолжительность : 1 ч. 2 м.
Вид битрейта : Постоянный
Битрейт : 448 Кбит/сек
Каналы : 6 каналов
Расположение каналов : Front: L C R, Side: L R, LFE
Частота : 48,0 КГц
Битовая глубина : 16 бит
Метод сжатия : С потерями
Размер потока : 201 Мбайт (18%)
Выравнивание : Соединение по промежуткам
Продолжительность промежутка : 40 мс. (1,00 видеокадр)
Время предзагрузки промежутка : 512 мс.
Общее
Полное имя : H:\Bezimyanaya_zvezda\Bezimyanaya_zvezda_02_DVDRip[pirat.ca].avi
Формат : AVI
Формат/Информация : Audio Video Interleave
Размер файла : 1,12 Гбайт
Продолжительность : 1 ч. 5 м.
Общий поток : 2437 Кбит/сек
Программа кодирования : VirtualDubModRus 1.5.10.2 (build 2542/release)
Библиотека кодирования : VirtualDubMod build 2542/release
Видео
Идентификатор : 0
Формат : MPEG-4 Visual
Профиль формата : Advanced [email protected]
Параметр BVOP формата : 2
Параметр QPel формата : Нет
Параметр GMC формата : Без точки перехода
Параметр матрицы формата : Default (MPEG)
Режим смешивания : Сжатый битовый поток
Идентификатор кодека : XVID
Идентификатор кодека/Подсказка : XviD
Продолжительность : 1 ч. 5 м.
Битрейт : 1979 Кбит/сек
Ширина : 704 пикселя
Высота : 528 пикселей
Соотношение сторон : 4:3
Частота кадров : 25,000 кадров/сек
Цветовое пространство : YUV
Субдискретизация насыщенности : 4:2:0
Битовая глубина : 8 бит
Тип развёртки : Прогрессивная
Метод сжатия : С потерями
Бит/(Пиксели*Кадры) : 0.213
Размер потока : 928 Мбайт (81%)
Библиотека кодирования : XviD 1.2.1 (UTC 2008-12-04)
Аудио
Идентификатор : 1
Формат : AC-3
Формат/Информация : Audio Coding 3
Расширение режима : CM (complete main)
Параметр Endianness формата : Big
Идентификатор кодека : 2000
Продолжительность : 1 ч. 5 м.
Вид битрейта : Постоянный
Битрейт : 448 Кбит/сек
Каналы : 6 каналов
Расположение каналов : Front: L C R, Side: L R, LFE
Частота : 48,0 КГц
Битовая глубина : 16 бит
Метод сжатия : С потерями
Размер потока : 210 Мбайт (18%)
Выравнивание : Соединение по промежуткам
Продолжительность промежутка : 40 мс. (1,00 видеокадр)
Время предзагрузки промежутка : 512 мс.
Download / Скачать

Хотите скачать бесплатно? Зарегистрируйтесь на сайте (ссылка на регистрацию). Pirat.ca - самый быстрый торрент трекер в рунете!

Как скачивать  ·   Что такое торрент  ·   Рейтинг и ограничения

kloctuk

3298

Пост 18-Авг-2013 01:37 (спустя 2 часа 6 минут)

[Q] 

Был на театральной постановке - шедевр!!!

_________________
-выстрели еще разок. -зачем? - его душа еще танцует...
[Профиль]  [ЛС] 

ara1205

69733

Пост 18-Авг-2013 10:47 (спустя 9 часов)

[Q] 

Встаньте на раздачу.
[Профиль]  [ЛС] 

Андря

8409

Пост 20-Авг-2013 17:25 (спустя 2 дня 6 часов)

[Q] 

409776Встаньте на раздачу.
объясни как, человек не понимает, запутался.

_________________
Като Тешекика
[Профиль]  [ЛС] 

kugesan

56634

Пост 21-Авг-2013 13:59 (спустя 20 часов)

[Q] 

Пока вы объясняете, я постою на раздаче, но не долго)))

_________________

В мире две бесконечности: вселенная и человеческая глупость - Альберт Эйнштен
«Можно вытащить человека из грязи, но нельзя вытащить грязь из человека»!
[Профиль]  [ЛС] 

Пост 21-Авг-2013 14:04 (спустя 4 минуты)

Топик был перенесен из форума Наше кино (Трюм) в форум Советское кино
kugesan
 

canfly

506

Пост 21-Авг-2013 14:05 (спустя 5 минут)

[Q] 

Зацеплю,искал исходник,не нашел,пораздаю.
Мне б так раздачи делать...
Неплохо бы,если еще кто-нить поддержал,винтяра греется.

_________________
[Профиль]  [ЛС] 

kloctuk

3298

Пост 28-Авг-2013 16:28 (спустя 7 дней)

[Q] 

411030Неплохо бы,если еще кто-нить поддержал
Поддержу

_________________
-выстрели еще разок. -зачем? - его душа еще танцует...
[Профиль]  [ЛС] 

destroymp

Штурман

Пост 29-Янв-2015 18:19 (спустя 1 год 5 месяцев)

[Q] 

Господа скачавшие, сидеры и тому подобное, пребольшущая просьба к Вам, вернуться на раздачу, мне необходимо докачать сей продукт Советского кино! Пиратка рулит! Лови бочку
[Профиль]  [ЛС] 

urik

Морской Волк

Пост 06-Фев-2015 09:54 (спустя 7 дней)

[Q] 

Спасибо!!!
[Профиль]  [ЛС] 

xzxscorpxzx

Флибустьер

Пост 11-Фев-2016 07:11 (спустя 1 год)

[Q] 

спасибо!супер! !COOL!
[Профиль]  [ЛС] 
Показать сообщения:    
Ответить на тему

Текущее время: Сегодня 06:23

Часовой пояс: GMT + 4



Вы не можете начинать темы
Вы не можете отвечать на сообщения
Вы не можете редактировать свои сообщения
Вы не можете удалять свои сообщения
Вы не можете голосовать в опросах
Вы не можете прикреплять файлы к сообщениям
Вы не можете скачивать файлы

▼ Вниз