ML
     
  Уважаемый Гость!
Вы можете поддержать проект и зарегистрироваться у наших партнеров - онлайн-стратегия MyLands. При регистрации в игре Вы получите код, который сможете активировать после регистрации на pirat.ca и получить 1000 дублонов.

Ваш код:
b70663c760e7cd2521b8e123786cdd788200e3bd
 
     

Во имя жизни (Иосиф Хейфиц, Александр Зархи) [1946, драма, DVDRip]

Ответить на тему
 
Автор
Сообщение

Пост 15-Сен-2013 09:04

[Q] 

Пират

Во имя жизни Производство: СССР, Ленфильм
Продолжительность: 01:37:35
Год выхода: 1946
Жанр: Драма
Режиссер: Иосиф Хейфиц, Александр Зархи
В ролях: Виктор Хохряков, Михаил Кузнецов, Олег Жаков, Клавдия Лепанова, Владимир Дорофеев, Александр Зражевский, Борис Кудрявцев, Михаил Ростовцев, Николай Черкасов, Людмила Шабалина, Михаил Громыко
Описание:
Три друга, три молодых хирурга, вернувшись с войны, начинают работу над сложной медицинской проблемой. Напряженный труд не приводит к желаемым результатам, и двое из них перестают верить в успех...
Качество: DVDRip
Формат: AVI
Видео кодек: XviD
Аудио кодек: AC3
Видео: 720x544 (1.32:1), 23.976 fps, XviD build 50 ~1678 kbps avg, 0.18 bit/pixel
Аудио: 48 kHz, AC3 Dolby Digital, 3/2 (L,C,R,l,r) + LFE ch, ~448 kbps
Общее
Полное имя : E:\Раздачи\Vo.imya.zhizni.1946.XviD.DVDRip.avi
Формат : AVI
Формат/Информация : Audio Video Interleave
Размер файла : 1,46 Гбайт
Продолжительность : 1 ч. 37 м.
Общий поток : 2138 Кбит/сек
Режиссёр : Rip By DJ_Zum Для сайта Generalfilm.ru
Программа кодирования : Lavf52.33.0
Видео
Идентификатор : 0
Формат : MPEG-4 Visual
Профиль формата : [email protected]
Параметр BVOP формата : Нет
Параметр QPel формата : Нет
Параметр GMC формата : Без точки перехода
Параметр матрицы формата : Default (H.263)
Идентификатор кодека : XVID
Идентификатор кодека/Подсказка : XviD
Продолжительность : 1 ч. 37 м.
Битрейт : 1679 Кбит/сек
Ширина : 720 пикселей
Высота : 544 пикселя
Соотношение сторон : 4:3
Частота кадров : 23,976 кадра/сек
Цветовое пространство : YUV
Субдискретизация насыщенности : 4:2:0
Битовая глубина : 8 бит
Тип развёртки : Прогрессивная
Метод сжатия : С потерями
Бит/(Пиксели*Кадры) : 0.179
Размер потока : 1,14 Гбайт (79%)
Библиотека кодирования : XviD 1.2.1 (UTC 2008-12-04)
Аудио
Идентификатор : 1
Формат : AC-3
Формат/Информация : Audio Coding 3
Расширение режима : CM (complete main)
Параметр Endianness формата : Big
Идентификатор кодека : 2000
Продолжительность : 1 ч. 37 м.
Вид битрейта : Постоянный
Битрейт : 448 Кбит/сек
Каналы : 6 каналов
Расположение каналов : Front: L C R, Side: L R, LFE
Частота : 48,0 КГц
Битовая глубина : 16 бит
Метод сжатия : С потерями
Размер потока : 313 Мбайт (21%)
Выравнивание : Соединение по промежуткам
Продолжительность промежутка : 32 мс. (0,77 видеокадр)
Download / Скачать

Хотите скачать бесплатно? Зарегистрируйтесь на сайте (ссылка на регистрацию). Pirat.ca - самый быстрый торрент трекер в рунете!

Как скачивать  ·   Что такое торрент  ·   Рейтинг и ограничения



Последний раз редактировалось: Пират (2013-09-15 12:50), всего редактировалось 1 раз

Пост 15-Сен-2013 12:59 (спустя 3 часа)

Топик был перенесен из форума Наше кино (Трюм) в форум Советское кино
erchine
 
Показать сообщения:    
Ответить на тему

Текущее время: Сегодня 00:20

Часовой пояс: GMT + 4



Вы не можете начинать темы
Вы не можете отвечать на сообщения
Вы не можете редактировать свои сообщения
Вы не можете удалять свои сообщения
Вы не можете голосовать в опросах
Вы не можете прикреплять файлы к сообщениям
Вы не можете скачивать файлы

▼ Вниз