ML
     
  Уважаемый Гость!
Вы можете поддержать проект и зарегистрироваться у наших партнеров - онлайн-стратегия MyLands. При регистрации в игре Вы получите код, который сможете активировать после регистрации на pirat.ca и получить 1000 дублонов.

Ваш код:
ea554e7ed3eacceeae87a8b30a9de3f086c18a84
 
     

За прекрасных дам (Анатолий Эйрамджан) [1989 г., Комедия, DVDRip]

Ответить на тему
 
Автор
Сообщение

Пост 21-Сен-2013 02:42

[Q] 

gelexi

Лоцман

-За прекрасных дам-- Производство: СССР
Режиссер: Анатолий Эйрамджан
Жанр: Комедия
Год выпуска: 1989 г.
Продолжительность: 01:11:00
В ролях: Александр Панкратов-Черный
Александр Абдулов
Елена Цыплакова
Ирина Шмелева
Ирина Розанова
Маргарита Сергеечева
Сергей Степанченко
Елена Аржаник-Описание: Молодые благополучные дамы, подруги детства, каждый год собираются, чтобы похвастать своими успехами и поговорить «за жизнь». Компанию удачливых подружек в качестве своих жертв выбирают незадачливые грабители. И вот настает время очередного девичника, и в квартиру врываются двое мужчин в масках… Знали бы они, чем это закончится — никогда бы не решились на это «ограбление»…-Качество видео: DVDRip
Контейнер: AVI
Видео кодек: XviD
Аудио кодек: MP3
Видео: Xvid 640x480 25.00fps 1429Kbps 0.186 bit/pixel
Аудио: MPEG Audio Layer 3 48000Hz stereo 128Kbps
Cубтитры: отсутствуют
Общее
Полное имя : D:\SPARK\Раздачи\За прекрасных дам![pirat.ca].avi
Формат : AVI
Формат/Информация : Audio Video Interleave
Размер файла : 745 Мбайт
Продолжительность : 1 ч. 6 м.
Общий поток : 1565 Кбит/сек
Программа кодирования : VirtualDubMod 1.5.4.1 (build 2178/release)
Библиотека кодирования : VirtualDubMod build 2178/release
Видео
Идентификатор : 0
Формат : MPEG-4 Visual
Профиль формата : Advanced [email protected]
Параметр BVOP формата : 1
Параметр QPel формата : Нет
Параметр GMC формата : Без точки перехода
Параметр матрицы формата : Выборочная
Идентификатор кодека : XVID
Идентификатор кодека/Подсказка : XviD
Продолжительность : 1 ч. 6 м.
Битрейт : 1429 Кбит/сек
Ширина : 640 пикселей
Высота : 480 пикселей
Соотношение сторон : 4:3
Частота кадров : 25,000 кадров/сек
Цветовое пространство : YUV
Субдискретизация насыщенности : 4:2:0
Битовая глубина : 8 бит
Тип развёртки : Прогрессивная
Метод сжатия : С потерями
Бит/(Пиксели*Кадры) : 0.186
Размер потока : 681 Мбайт (91%)
Библиотека кодирования : XviD 1.2.1 (UTC 2008-12-04)
Аудио
Идентификатор : 1
Формат : MPEG Audio
Версия формата : Version 1
Профиль формата : Layer 3
Режим : Joint stereo
Расширение режима : MS Stereo
Идентификатор кодека : 55
Идентификатор кодека/Подсказка : MP3
Продолжительность : 1 ч. 6 м.
Вид битрейта : Постоянный
Битрейт : 128 Кбит/сек
Каналы : 2 канала
Частота : 48,0 КГц
Метод сжатия : С потерями
Размер потока : 61,0 Мбайт (8%)
Выравнивание : Соединение по промежуткам
Продолжительность промежутка : 80 мс. (2,00 видеокадра)
Время предзагрузки промежутка : 504 мс.
Библиотека кодирования : LAME3.98r
Настройки программы : -m j -V 4 -q 2 -lowpass 17 -b 128
Язык : Russian
Download / Скачать

Хотите скачать бесплатно? Зарегистрируйтесь на сайте (ссылка на регистрацию). Pirat.ca - самый быстрый торрент трекер в рунете!

Как скачивать  ·   Что такое торрент  ·   Рейтинг и ограничения



Последний раз редактировалось: gelexi (2013-09-21 06:20), всего редактировалось 1 раз

erchine

44807

Пост 21-Сен-2013 04:33 (спустя 1 час 51 минута)

[Q] 

# сомнительно
Недокроп.
[Профиль]  [ЛС] 

Пост 21-Сен-2013 08:22 (спустя 3 часа)

Топик был перенесен из форума Наше кино (Трюм) в форум Советское кино
erchine
 

СерКат

Корсар

Пост 01-Дек-2013 04:08 (спустя 2 месяца 9 дней)

[Q] 

можно посмотреть,о женской завести
[Профиль]  [ЛС] 
Показать сообщения:    
Ответить на тему

Текущее время: Сегодня 12:11

Часовой пояс: GMT + 4



Вы не можете начинать темы
Вы не можете отвечать на сообщения
Вы не можете редактировать свои сообщения
Вы не можете удалять свои сообщения
Вы не можете голосовать в опросах
Вы не можете прикреплять файлы к сообщениям
Вы не можете скачивать файлы

▼ Вниз