ML
     
  Уважаемый Гость!
Вы можете поддержать проект и зарегистрироваться у наших партнеров - онлайн-стратегия MyLands. При регистрации в игре Вы получите код, который сможете активировать после регистрации на pirat.ca и получить 1000 дублонов.

Ваш код:
73640f24f8a0f579e128ea7346fd2db2b1009143
 
     

Сталинград (Юрий Озеров) [1989 г., драма, военный, история, TVRip]

Ответить на тему
 
Автор
Сообщение

Пост 29-Сен-2013 08:07

[Q] 

Dominik

Морской Волк

-Сталинград -- Производство: СССР, Германия (ГДР), США, Чехословакия
Режиссер: Юрий Озеров
Жанр: драма, военный, история
Год выпуска: 1989 г.
Продолжительность: Фильм 1: 01:27:31
Продолжительность: Фильм 2: 01:38:17
Российская премьера: 1989
В ролях: Пауэрс Бут, Любомирас Лауцявичюс, Сергей Никоненко, Фернандо Альенде, Михаил Ульянов, Гюнтер Юнгханс, Арчил Гомиашвили, Валерий Цветков, Борис Невзоров, Бруно Фрейндлих-Описание: Киноэпопея Юрия Озерова о крупнейшем военно-политическом событии Второй мировой войны — Сталинградской битве.-КиноПоиск
Качество видео: TVRip
Контейнер: AVI
Видео кодек: XviD
Аудио кодек: AC3
Видео: Фильм1:720х400 [16:10], 1848 kbps, 25,000 fps 0.257 (bit/pixel)
Аудио: Фильм 1:384 kbps, 6 каналов(Front: L C R, Side: L R, LFE), 48,0 kHz
Видео: Фильм 2:720х400 [16:10], 1608 kbps, 25,000 fps 0.223 (bit/pixel)
Аудио: Фильм 2:384 kbps, 6 каналов(Front: L C R, Side: L R, LFE), 48,0 kHz
Cубтитры: отсутствуют
«Железный ветер бил им в лицо, а они все шли вперед, и снова чувство суеверного страха охватывало противника: люди ли шли в атаку, смертны ли они»
Фильм 1
Общее
Полное имя : F:\Фильмы\Военные\Сталинград\Сталинград\Сталинград_фильм 1.avi
Формат : AVI
Формат/Информация : Audio Video Interleave
Профиль формата : OpenDML
Размер файла : 1,37 Гбайт
Продолжительность : 1 ч. 27 м.
Общий поток : 2244 Кбит/сек
Программа кодирования : Lavf53.28.100
Видео
Идентификатор : 0
Формат : MPEG-4 Visual
Профиль формата : Advanced [email protected]
Параметр BVOP формата : Нет
Параметр QPel формата : Нет
Параметр GMC формата : Без точки перехода
Параметр матрицы формата : Default (MPEG)
Идентификатор кодека : XVID
Идентификатор кодека/Подсказка : XviD
Продолжительность : 1 ч. 27 м.
Битрейт : 1848 Кбит/сек
Ширина : 720 пикселей
Высота : 400 пикселей
Соотношение сторон : 16:10
Частота кадров : 25,000 кадров/сек
Цветовое пространство : YUV
Субдискретизация насыщенности : 4:2:0
Битовая глубина : 8 бит
Тип развёртки : Прогрессивная
Метод сжатия : С потерями
Бит/(Пиксели*Кадры) : 0.257
Размер потока : 1,13 Гбайт (82%)
Библиотека кодирования : XviD 64
Аудио
Идентификатор : 1
Формат : AC-3
Формат/Информация : Audio Coding 3
Расширение режима : CM (complete main)
Параметр Endianness формата : Big
Идентификатор кодека : 2000
Продолжительность : 1 ч. 27 м.
Вид битрейта : Постоянный
Битрейт : 384 Кбит/сек
Каналы : 6 каналов
Расположение каналов : Front: L C R, Side: L R, LFE
Частота : 48,0 КГц
Битовая глубина : 16 бит
Метод сжатия : С потерями
Размер потока : 240 Мбайт (17%)
Выравнивание : Соединение по промежуткам
Продолжительность промежутка : 32 мс. (0,80 видеокадр)
Фильм 2
Общее
Полное имя : F:\Фильмы\Военные\Сталинград\Сталинград\Сталинград_фильм 2.avi
Формат : AVI
Формат/Информация : Audio Video Interleave
Профиль формата : OpenDML
Размер файла : 1,38 Гбайт
Продолжительность : 1 ч. 38 м.
Общий поток : 2004 Кбит/сек
Программа кодирования : Lavf53.28.100
Видео
Идентификатор : 0
Формат : MPEG-4 Visual
Профиль формата : Advanced [email protected]
Параметр BVOP формата : Нет
Параметр QPel формата : Нет
Параметр GMC формата : Без точки перехода
Параметр матрицы формата : Default (MPEG)
Идентификатор кодека : XVID
Идентификатор кодека/Подсказка : XviD
Продолжительность : 1 ч. 38 м.
Битрейт : 1608 Кбит/сек
Ширина : 720 пикселей
Высота : 400 пикселей
Соотношение сторон : 16:10
Частота кадров : 25,000 кадров/сек
Цветовое пространство : YUV
Субдискретизация насыщенности : 4:2:0
Битовая глубина : 8 бит
Тип развёртки : Прогрессивная
Метод сжатия : С потерями
Бит/(Пиксели*Кадры) : 0.223
Размер потока : 1,10 Гбайт (80%)
Библиотека кодирования : XviD 64
Аудио
Идентификатор : 1
Формат : AC-3
Формат/Информация : Audio Coding 3
Расширение режима : CM (complete main)
Параметр Endianness формата : Big
Идентификатор кодека : 2000
Продолжительность : 1 ч. 38 м.
Вид битрейта : Постоянный
Битрейт : 384 Кбит/сек
Каналы : 6 каналов
Расположение каналов : Front: L C R, Side: L R, LFE
Частота : 48,0 КГц
Битовая глубина : 16 бит
Метод сжатия : С потерями
Размер потока : 270 Мбайт (19%)
Выравнивание : Соединение по промежуткам
Продолжительность промежутка : 32 мс. (0,80 видеокадр)
Download / Скачать

Хотите скачать бесплатно? Зарегистрируйтесь на сайте (ссылка на регистрацию). Pirat.ca - самый быстрый торрент трекер в рунете!

Как скачивать  ·   Что такое торрент  ·   Рейтинг и ограничения



Последний раз редактировалось: Dominik (2013-09-29 22:31), всего редактировалось 3 раз(а)

Пост 30-Сен-2013 05:22 (спустя 21 час)

Топик был перенесен из форума Наше кино (Трюм) в форум Советское кино
aleksey99
 

Монах

Пост 12-Окт-2013 07:09 (спустя 12 дней)

[Q] 

хочу посмотреть перед скачиванием
[Профиль]  [ЛС] 

masterovoi

Лоцман

Пост 13-Окт-2013 09:29 (спустя 1 день 2 часа)

[Q] 

Это фильм 1989 года.
[Профиль]  [ЛС] 

Dominik ®

Морской Волк

68

Пост 13-Окт-2013 16:29 (спустя 7 часов)

[Q] 

masterovoi,
Там так и написано!!!! :))))))

_________________
Раньше удивляло хамство, теперь удивляет вежливость!
[Профиль]  [ЛС] 

Dysy

Морской Волк

Пост 16-Ноя-2013 18:18 (спустя 1 месяц 3 дня)

[Q] 

качаю и потом поддержу раздачу Лови бочку
[Профиль]  [ЛС] 

mbush

Лоцман

Пост 18-Дек-2013 11:06 (спустя 1 месяц 1 день)

[Q] 

Господа, пожалуйста дайте скорость... Уже почти месяц пытаюсь скачать, но раздали только 1,4% bc
[Профиль]  [ЛС] 

Dominik ®

Морской Волк

68

Пост 12-Апр-2014 14:22 (спустя 3 месяца 25 дней)

[Q] 

За бочку и поддержку спасибо!
Добавлено спустя 51 секунда:
Скорость вроде в норме

_________________
Раньше удивляло хамство, теперь удивляет вежливость!
[Профиль]  [ЛС] 

sergena

Морской Волк

Пост 13-Апр-2014 11:56 (спустя 21 час)

[Q] 

да качество содержания лучше современных
[Профиль]  [ЛС] 

Dominik ®

Морской Волк

68

Пост 15-Апр-2014 10:52 (спустя 1 день 22 часа)

[Q] 

Верно подмечено!!!

_________________
Раньше удивляло хамство, теперь удивляет вежливость!
[Профиль]  [ЛС] 
Показать сообщения:    
Ответить на тему

Текущее время: Сегодня 22:35

Часовой пояс: GMT + 4



Вы не можете начинать темы
Вы не можете отвечать на сообщения
Вы не можете редактировать свои сообщения
Вы не можете удалять свои сообщения
Вы не можете голосовать в опросах
Вы не можете прикреплять файлы к сообщениям
Вы не можете скачивать файлы

▼ Вниз