ML
     
  Уважаемый Гость!
Вы можете поддержать проект и зарегистрироваться у наших партнеров - онлайн-стратегия MyLands. При регистрации в игре Вы получите код, который сможете активировать после регистрации на pirat.ca и получить 1000 дублонов.

Ваш код:
11f49771fdf057c9d51610e4a0925c3b46ddb655
 
     

Зимний вечер в Гаграх (Карен Шахназаров) [1985 г., Драма, мелодрама, музыкальный фильм, DVDRip]

Ответить на тему
 
Автор
Сообщение

Пост 31-Дек-2011 17:01

[Q] 

avzaytsev

Морской Волк

Зимний вечер в Гаграх
Год выпуска: 1985
Мировая премьера: 25 декабря 1985
Производство: СССР
Жанр: Драма, мелодрама, музыкальный фильм
Продолжительность: 01:25:02
Режиссер: Карен Шахназаров
В ролях: Александр Ширвиндт, Петр Щербаков, Аркадий Насыров, Александр Панкратов-Черный, Аня Иванова, Евгений Евстигнеев, Сергей Никоненко, Светлана Аманова, Наталья Гундарева, Георгий Бурков
Описание: Главный герой фильма работает репетитором в эстрадном коллективе и покорно терпит выходки "звезд". Никто не знает, что в юности он был знаменитым чечеточником. Да и сам он старается не вспоминать, чтоб не травить душу. Но нашелся человек, который всколыхнул воспоминания. И пусть он требует научить танцевать степ, не смотря на то, что у него была сломана нога, и вообще поведение его раздражает. Однако жизнь старого танцора изменилась. Фильм о примирении с собой немного грустный и старомодный, но оставляет после себя очень светлые чувства.
IMDB, КиноПоиск
Источник/Качество: DVDRip
Формат: AVI
Видео кодек: XviD
Аудио кодек: MP3
Видео: 512x384 (1.33:1), 25 fps, XviD build 9 ~1164 kbps avg, 0.24 bit/pixel
Аудио: 48 kHz, MPEG Layer 3, 2 ch, ~128.00 kbps avg
Это фильм о судьбе бывшего знаменитого "короля чечетки", ныне всеми забытого консультанта мюзик-холла Беглова. Евгений Евстигнеев находит выразительные детали и психологические нюансы своего персонажа. На первый взгляд, Беглов - скучный тихоня. Но, даже рассказывая о чечетке, он весь преображается, загорается внутренним огнем. Именно таким видит его единственный ученик. Но вот проходит эпизод, другой, и мысль авторов становится ясной: им хочется рассказать, как важно сохранить верность своему призванию, душевную чистоту, как необходимы человеку дружеское внимание и забота близких. А фильм продолжается. Заявленный как музыкальный, он по сути лишен оригинальной, запоминающейся музыки. В картине к тому же много длиннот, лишних, необязательных сцен. Мало настоящего юмора, зато в избытке сусальности, слащавого умиления. Есть такие произведения, о которых хочется говорить и говорить. Кажется, слова льются сами собой: столько мыслей и чувств рождает роман или фильм. В данном случае все иначе. Возможно, потому, что перед нами лишь набросок, эскиз, растянутый до величины полнометражной картины. А один актер, пусть и самый замечательный, как известно , в поле не воин...
Александр Федоров
  • Лучший музыкальный фильм 1986 года по опросу журнала «Советский экран».
  • На рояле Евгению Евстигнееву подыгрывал композитор фильма Анатолий Кролл.
  • Чечетку за Евстигнеева отбивал в кадре танцор Владимир Кирсанов.
  • Съемки проходили в Гаграх, Одессе, Москве на студии «Мосфильм».
  • В ленте дебютировала будущая прима-балерина Большого театра, восьмилетняя тогда еще Анна Иванова. Она сыграла дочь Беглова в детстве.
  • После показа фильма Шахназарову позвонила женщина, представилась дочерью Алексея Быстрова, стала хвалить фильм, а в конце сказала, что в нем очень правдиво показана история жизни отца.
  • На роль знаменитого чечеточника Беглова пробовались такие знаменитости как Олег Ефремов, Евгений Леонов, Петр Щербаков.
  • Роль певицы Мельниковой специально была написана для Натальи Гундаревой. «Наташа играла капризную звезду, но сама на съемках вела себя скромно: никогда не опаздывала и не требовала никаких поблажек», - вспоминал Карен Шахназаров. За Наталью Гундареву в картине пела эстрадная певица Марина Журавлева.
  • Прообразом Беглова стал знаменитый чечеточник Алексей Николаевич Быстров (о чём рассказывает Карен Шахназаров в интервью, вошедшем в DVD), в молодости выступавший с легендарным московским джаз-оркестром Эдди Рознера. Именно бывший оркестр Рознера составил в свое время основу биг-бэнда «Современник» п/у Анатолия Кролла, который снялся в фильме. Быстров был также одним из учителей Аркадия Насырова, исполняющего в картине роль молодого Беглова.
  • Общее
    Полное имя : Зимний вечер в Гаграх.avi
    Формат : AVI
    Формат/Информация : Audio Video Interleave
    Размер файла : 790 Мбайт
    Продолжительность : 1 ч. 25 м.
    Общий поток : 1299 Кбит/сек
    Программа кодирования : VirtualDubMod 1.5.4.1 (build 2178/release)
    Библиотека кодирования : VirtualDubMod build 2178/release
    Видео
    Идентификатор : 0
    Формат : MPEG-4 Visual
    Профиль формата : [email protected]
    Параметр BVOP формата : 1
    Параметр QPel формата : Нет
    Параметр GMC формата : Без точки перехода
    Параметр матрицы формата : Выборочная
    Идентификатор кодека : XVID
    Идентификатор кодека/Подсказка : XviD
    Продолжительность : 1 ч. 25 м.
    Битрейт : 1164 Кбит/сек
    Ширина : 512 пикселей
    Высота : 384 пикселя
    Соотношение сторон : 4:3
    Частота кадров : 25,000 кадров/сек
    Цветовое пространство : YUV
    Субдискретизация насыщенности : 4:2:0
    Битовая глубина : 8 бит
    Тип развёртки : Прогрессивная
    Метод сжатия : С потерями
    Бит/(Пиксели*Кадры) : 0.237
    Размер потока : 708 Мбайт (90%)
    Библиотека кодирования : XviD 0.0.09 (UTC 2003-03-25)
    Аудио
    Идентификатор : 1
    Формат : MPEG Audio
    Версия формата : Version 1
    Профиль формата : Layer 3
    Режим : Joint stereo
    Расширение режима : MS Stereo
    Идентификатор кодека : 55
    Идентификатор кодека/Подсказка : MP3
    Продолжительность : 1 ч. 24 м.
    Вид битрейта : Постоянный
    Битрейт : 128 Кбит/сек
    Каналы : 2 канала
    Частота : 48,0 КГц
    Метод сжатия : С потерями
    Задержка видео : 528 мс.
    Размер потока : 77,8 Мбайт (10%)
    Выравнивание : Разделение по промежуткам
    Продолжительность промежутка : 80 мс. (2,00 видеокадра)
    Время предзагрузки промежутка : 504 мс.




    Download / Скачать

    Хотите скачать бесплатно? Зарегистрируйтесь на сайте (ссылка на регистрацию). Pirat.ca - самый быстрый торрент трекер в рунете!

    Как скачивать  ·   Что такое торрент  ·   Рейтинг и ограничения

    Пост 31-Дек-2011 17:11 (спустя 10 минут)

    Топик был перенесен из форума Наше Кино в форум Советское кино

    goxakrauter
     

    rrtryytyew4

    Морской Волк

    32

    Пост 02-Янв-2012 22:02 (спустя 2 дня 5 часов)

    [Q] 

    Великий актер - Евстегнеев! Фильм рекомендую.
    [Профиль]  [ЛС] 

    dimkoba

    35104

    Пост 17-Янв-2012 21:44 (спустя 14 дней)

    [Q] 

    согласен фильм хороший

    _________________
    [Профиль]  [ЛС] 

    fat2010

    Штурман

    Пост 31-Янв-2012 00:18 (спустя 13 дней)

    [Q] 

    Спасибо за светлые чувства воспоминания !!!
    [Профиль]  [ЛС] 

    Анна 341662

    Корсар

    11

    Пост 25-Май-2014 12:34 (спустя 2 года 3 месяца)

    [Q] 

    Спасибо за за раздачу Автору респект!!!
    [Профиль]  [ЛС] 

    Анна 341662

    Корсар

    11

    Пост 08-Июн-2014 16:08 (спустя 14 дней)

    [Q] 

    Веонитесь пожалуйста на раздачу!!!!!!!!! Не качает
    [Профиль]  [ЛС] 

    iohio

    Пост 18-Июн-2014 10:28 (спустя 9 дней)

    [Q] 

    Всем рекомендую
    [Профиль]  [ЛС] 
    Показать сообщения:    
    Ответить на тему

    Текущее время: Сегодня 03:08

    Часовой пояс: GMT + 4



    Вы не можете начинать темы
    Вы не можете отвечать на сообщения
    Вы не можете редактировать свои сообщения
    Вы не можете удалять свои сообщения
    Вы не можете голосовать в опросах
    Вы не можете прикреплять файлы к сообщениям
    Вы не можете скачивать файлы

    ▼ Вниз