ML
     
  Уважаемый Гость!
Вы можете поддержать проект и зарегистрироваться у наших партнеров - онлайн-стратегия MyLands. При регистрации в игре Вы получите код, который сможете активировать после регистрации на pirat.ca и получить 1000 дублонов.

Ваш код:
ea554e7ed3eacceeae87a8b30a9de3f086c18a84
 
     

Отряд (Алексей Симонов) [1984 г., военный, SATRip]

Ответить на тему
 
Автор
Сообщение

Пост 10-Ноя-2013 19:59

[Q] 

vasilich619

Флибустьер

-Отряд-- Производство: СССР
Режиссер: Алексей Симонов
Жанр: военный
Год выпуска: 1984 г.
Продолжительность: 01:32:04
В ролях: Александр Феклистов (Константин Доронин), Сергей Гармаш (Иван Урин), Дмитрий Брусникин (Сергей Никитин), Михаил Морозов (Саша Петров), Яков Степанов (Кузьмин), Александр Песков (Юрий Окунев)...-Описание: Литва, 1941 год. Немецкие танки и моторизованные колонны ворвались в приграничный военный городок. Семеро советских солдат оказались отрезанными от гарнизона. Без продовольствия и оружия они отправились через оккупированную территорию в расположение частей Красной Армии, и только двое из них добрались до линии фронта…-Сэмпл КиноПоиск
Качество видео: SATRip
Контейнер: AVI
Видео кодек: XviD
Аудио кодек: MP3
Видео: 640x480 (4:3), 25.000 fps, MPEG4, XviD, 1 849 Kbps
Аудио: русский, оригинал, 48.0 KHz, 2 ch, MP3, 128 Kbps, CBR
Cубтитры: отсутствуют
С детства один из самых любимых фильмов о Великой Отечественной войне. Привлекает так и не достигнутое многими фильмами военной тематики гармоничное сочетание действия и заложенной идеи.
Очень выигрышный сюжет, использованный с той или иной степенью удачности в фильмах 1980-ых гг. («Государственная граница. Год сорок первый») и в начале XXI века («Сильнее огня», «В июне 1941») — группа солдат в первые дни войны прорывается из окружения, вступая по пути в бое столкновения с превосходящими силами противника. Почти весь фильм сюжет держит в напряжении, заставляя сопереживать бойцам Красной Армии. В то же время в фильме поднимается целый ряд вопросов о причинах поражений и о неготовности РККА к войне (примечательна в этой связи фраза героя Александра Феклистова — командира отряда в финале фильма, когда теряя сознание в окопе, он вспоминает оставленный им «Шмайсер», ещё раз подчеркивающая основную идею фильма), о межнациональных взаимоотношениях на возвращенных прибалтийских землях и о восприятии войны мирными жителями, о долге солдата перед Родиной, перед своими товарищами…
Великолепный подбор актёров, многие из которых сыграли в этом фильме свои первые значительные роли — Александр Феклистов, Сергей Гармаш, Михаил Морозов, Александр Песков, Дмитрий Брусникин, Любомирас Лауцявичюс…
General
Complete name : F:\Фильмы\НАШЕ-КИНО\Otrjad.avi
Format : AVI
Format/Info : Audio Video Interleave
File size : 1.28 GiB
Duration : 1h 32mn
Overall bit rate : 1 987 Kbps
Director : SATrip by moryachok
Writing application : VirtualDubMod 1.5.10.2 (build 2540/release)
Writing library : VirtualDubMod build 2540/release
Video
ID : 0
Format : MPEG-4 Visual
Format profile : Streaming [email protected]
Format settings, BVOP : Yes
Format settings, QPel : No
Format settings, GMC : No warppoints
Format settings, Matrix : Default (MPEG)
Codec ID : XVID
Codec ID/Hint : XviD
Duration : 1h 32mn
Bit rate : 1 849 Kbps
Width : 640 pixels
Height : 480 pixels
Display aspect ratio : 4/3
Frame rate : 25.000 fps
Resolution : 24 bits
Colorimetry : 4:2:0
Scan type : Progressive
Bits/(Pixel*Frame) : 0.241
Stream size : 1.19 GiB (93%)
Writing library : XviD 1.1.2 (UTC 2006-11-01)
Audio
ID : 1
Format : MPEG Audio
Format version : Version 1
Format profile : Layer 3
Codec ID : 55
Codec ID/Hint : MP3
Duration : 1h 32mn
Bit rate mode : Constant
Bit rate : 128 Kbps
Channel(s) : 2 channels
Sampling rate : 48.0 KHz
Resolution : 16 bits
Stream size : 84.3 MiB (6%)
Alignment : Split accross interleaves
Interleave, duration : 40 ms (1.00 video frame)
Interleave, preload duration : 500 ms
Download / Скачать

Хотите скачать бесплатно? Зарегистрируйтесь на сайте (ссылка на регистрацию). Pirat.ca - самый быстрый торрент трекер в рунете!

Как скачивать  ·   Что такое торрент  ·   Рейтинг и ограничения

Пост 10-Ноя-2013 20:20 (спустя 20 минут)

Топик был перенесен из форума Наше кино (Трюм) в форум Советское кино
aleksey99
 
Показать сообщения:    
Ответить на тему

Текущее время: Сегодня 12:11

Часовой пояс: GMT + 4



Вы не можете начинать темы
Вы не можете отвечать на сообщения
Вы не можете редактировать свои сообщения
Вы не можете удалять свои сообщения
Вы не можете голосовать в опросах
Вы не можете прикреплять файлы к сообщениям
Вы не можете скачивать файлы

▼ Вниз