ML
     
  Уважаемый Гость!
Вы можете поддержать проект и зарегистрироваться у наших партнеров - онлайн-стратегия MyLands. При регистрации в игре Вы получите код, который сможете активировать после регистрации на pirat.ca и получить 1000 дублонов.

Ваш код:
ca44e9295b9b8527ba1c339c20494f70782efea6
 
     

Водяной (Сергей Сиделёв) [1961 г., Комедия, короткометражный, TVRip]

Ответить на тему
 
Автор
Сообщение

Пост 11-Ноя-2013 21:46

[Q] 

mersicc

Корсар

-Водяной-- Производство: СССР
Режиссер: Сергей Сиделёв
Жанр: Комедия, короткометражный
Год выпуска: 1961 г.
Продолжительность: 00:34:40
Российская премьера: 8 января 1962
В ролях: Эраст Гарин (Прохор Васильевич Лыков, Водяной), Валентина Владимирова (Кланя, жена Лыкова), Анатолий Кубацкий (Евсей Никодимыч Пестрико), Михаил Федоров (Андрей Иванович Караваев), Николай Мельников (Генька, сын Евсея), Вера Титова (доярка)-Описание: За то, что Лыков вечно пропадал на берегу озера с удочкой, над ним потешались, издевались, прозвали Водяным и нашли его увлечению верное применение: передали под его ответственность весь рыбный промысел колхоза...-Качество видео: SATRip
Контейнер: AVI
Видео кодек: XviD
Аудио кодек: AC3
Видео: 704x544 (1.29:1), 25 fps, XviD build 65 ~2395 kbps avg, 0.25 bit/pixel
Аудио: 48 kHz, AC3 Dolby Digital, 2/0 (L,R) ch, ~192 kbps
Cубтитры: отсутствуют
Общее
Полное имя : Vodjanoj.1961. XviD.SATRip_643.avi
Формат : AVI
Формат/Информация : Audio Video Interleave
Размер файла : 644 Мбайт
Продолжительность : 34 м.
Общий поток : 2597 Кбит/сек
Программа кодирования : VirtualDubMod 1.5.10.3 | www.virtualdub-fr.org || (build 2550/release)
Библиотека кодирования : VirtualDubMod build 2550/release
Видео
Идентификатор : 0
Формат : MPEG-4 Visual
Профиль формата : Advanced [email protected]
Параметр BVOP формата : 2
Параметр QPel формата : Нет
Параметр GMC формата : Без точки перехода
Параметр матрицы формата : Выборочная
Идентификатор кодека : XVID
Идентификатор кодека/Подсказка : XviD
Продолжительность : 34 м.
Битрейт : 2396 Кбит/сек
Ширина : 704 пикселя
Высота : 544 пикселя
Соотношение сторон : 1,294
Частота кадров : 25,000 кадров/сек
Цветовое пространство : YUV
Субдискретизация насыщенности : 4:2:0
Битовая глубина : 8 бит
Тип развёртки : Прогрессивная
Метод сжатия : С потерями
Бит/(Пиксели*Кадры) : 0.250
Размер потока : 594 Мбайт (92%)
Библиотека кодирования : XviD 65
Аудио
Идентификатор : 1
Формат : AC-3
Формат/Информация : Audio Coding 3
Расширение режима : CM (complete main)
Параметр Endianness формата : Big
Идентификатор кодека : 2000
Продолжительность : 34 м.
Вид битрейта : Постоянный
Битрейт : 192 Кбит/сек
Каналы : 2 канала
Расположение каналов : Front: L R
Частота : 48,0 КГц
Битовая глубина : 16 бит
Метод сжатия : С потерями
Размер потока : 47,6 Мбайт (7%)
Выравнивание : Разделение по промежуткам
Продолжительность промежутка : 40 мс. (1,00 видеокадр)
Время предзагрузки промежутка : 500 мс.
Download / Скачать

Хотите скачать бесплатно? Зарегистрируйтесь на сайте (ссылка на регистрацию). Pirat.ca - самый быстрый торрент трекер в рунете!

Как скачивать  ·   Что такое торрент  ·   Рейтинг и ограничения

Пост 12-Ноя-2013 10:33 (спустя 12 часов)

Топик был перенесен из форума Наше кино (Трюм) в форум Советское кино
kugesan
 

mersicc ®

Корсар

1614

Пост 12-Ноя-2013 14:43 (спустя 16 часов)

[Q] 

Качайте .. фильм прикольный. Мне понравилось

_________________
[Профиль]  [ЛС] 

СерКат

Корсар

Пост 04-Мар-2014 11:27 (спустя 3 месяца 21 день)

[Q] 

спасибо,не смотрел еще
[Профиль]  [ЛС] 
Показать сообщения:    
Ответить на тему

Текущее время: Сегодня 16:12

Часовой пояс: GMT + 4



Вы не можете начинать темы
Вы не можете отвечать на сообщения
Вы не можете редактировать свои сообщения
Вы не можете удалять свои сообщения
Вы не можете голосовать в опросах
Вы не можете прикреплять файлы к сообщениям
Вы не можете скачивать файлы

▼ Вниз