ML
     
  Уважаемый Гость!
Вы можете поддержать проект и зарегистрироваться у наших партнеров - онлайн-стратегия MyLands. При регистрации в игре Вы получите код, который сможете активировать после регистрации на pirat.ca и получить 1000 дублонов.

Ваш код:
8b752b428cf60a012c159dcae592cd1392170115
 
     

Горячий снег (Гавриил Егиазаров) [1972 г., военный, DVDRip-AVC]

Ответить на тему
 
Автор
Сообщение

Пост 14-Ноя-2013 08:21

[Q] 

vasilich619

Флибустьер

-Горячий снег-- Производство: СССР / Мосфильм
Режиссер: Гавриил Егиазаров
Жанр: военный
Год выпуска: 1972 г.
Продолжительность: 01:38:52
В ролях: Георгий Жженов, Анатолий Кузнецов, Борис Токарев, Вадим Спиридонов, Николай Еременко-мл., Тамара Седельникова, Ара Бабаджанян, Юрий Назаров, Алексей Панькин, Валентин Грачев, Константин Тыртов, Болот Бейшеналиев, Игорь Ледогоров, Александр Кавалеров...-Описание: Фильм рассказывает об одном из эпизодов героического сражения против фашистов на подступах к Сталинграду, в котором в полной мере проявились стойкость и сила духа русских солдат, защищавших родную землю.-Сэмпл КиноПоиск
Качество видео: DVDRip-AVC
Контейнер: MKV
Видео кодек: H.264
Аудио кодек: AC3
Видео: AVC, 716x358 (2.35:1), 23.976 fps, 2 100 Kbps (0.342 bit/pixel)
Аудио: Аудио #1: AC-3, 48.0 KHz, 6 ch, 448 Kbps, CBR (Russian)
Аудио #2: AC-3, 48.0 KHz, 6 ch, 448 Kbps, CBR (English)
Cубтитры: отсутствуют
General
Complete name : D:\ВОЕННЫЕ\Gorachii.sneg.1972.DVDRip.(AVC).mkv
Format : Matroska
File size : 2.07 GiB
Duration : 1h 38mn
Overall bit rate : 2 999 Kbps
Movie name : Релиз от FilmRus (konstantin49)
Encoded date : UTC 2013-02-06 23:34:16
Writing application : mkvmerge v2.3.0 ('Freak U') built on Sep 8 2008 18:32:16
Writing library : libebml v0.7.7 + libmatroska v0.8.1
Video
ID : 1
Format : AVC
Format/Info : Advanced Video Codec
Format profile : [email protected]
Format settings, CABAC : Yes
Format settings, ReFrames : 8 frames
Muxing mode : Container [email protected]
Codec ID : V_MPEG4/ISO/AVC
Duration : 1h 38mn
Bit rate : 2 044 Kbps
Nominal bit rate : 2 100 Kbps
Width : 716 pixels
Height : 358 pixels
Display aspect ratio : 2.35
Frame rate : 23.976 fps
Resolution : 24 bits
Colorimetry : 4:2:0
Scan type : Progressive
Bits/(Pixel*Frame) : 0.333
Stream size : 1.41 GiB (68%)
Writing library : x264 core 92 r1510 33d382a
Encoding settings : cabac=1 / ref=8 / deblock=1:-2:-2 / analyse=0x3:0x133 / me=umh / subme=10 / psy=1 / psy_rd=1.00:0.10 / mixed_ref=1 / me_range=48 / chroma_me=1 / trellis=2 / 8x8dct=1 / cqm=0 / deadzone=21,11 / fast_pskip=0 / chroma_qp_offset=-3 / threads=3 / sliced_threads=0 / nr=0 / decimate=0 / interlaced=0 / constrained_intra=0 / bframes=8 / b_pyramid=2 / b_adapt=2 / b_bias=0 / direct=3 / wpredb=1 / wpredp=2 / keyint=240 / keyint_min=23 / scenecut=40 / intra_refresh=0 / rc_lookahead=50 / rc=2pass / mbtree=1 / bitrate=2100 / ratetol=1.0 / qcomp=0.60 / qpmin=10 / qpmax=51 / qpstep=4 / cplxblur=20.0 / qblur=0.5 / ip_ratio=1.40 / aq=1:1.00
Audio #1
ID : 2
Format : AC-3
Format/Info : Audio Coding 3
Codec ID : A_AC3
Duration : 1h 38mn
Bit rate mode : Constant
Bit rate : 448 Kbps
Channel(s) : 6 channels
Channel positions : Front: L C R, Surround: L R, LFE
Sampling rate : 48.0 KHz
Video delay : 500ms
Stream size : 317 MiB (15%)
Language : Russian
Audio #2
ID : 3
Format : AC-3
Format/Info : Audio Coding 3
Codec ID : A_AC3
Duration : 1h 38mn
Bit rate mode : Constant
Bit rate : 448 Kbps
Channel(s) : 6 channels
Channel positions : Front: L C R, Surround: L R, LFE
Sampling rate : 48.0 KHz
Video delay : 500ms
Stream size : 317 MiB (15%)
Language : English
Download / Скачать

Хотите скачать бесплатно? Зарегистрируйтесь на сайте (ссылка на регистрацию). Pirat.ca - самый быстрый торрент трекер в рунете!

Как скачивать  ·   Что такое торрент  ·   Рейтинг и ограничения



Последний раз редактировалось: vasilich619 (2013-11-14 22:44), всего редактировалось 1 раз

Пост 14-Ноя-2013 23:22 (спустя 15 часов)

Топик был перенесен из форума Наше кино (Трюм) в форум Советское кино
erchine
 

AndyFox

Корсар

376

Пост 05-Янв-2014 23:47 (спустя 1 месяц 21 день)

[Q] 

Недавно прочитал книгу, сильно написано!

_________________
Torrent.
[Профиль]  [ЛС] 

koasa

Штурман

Пост 31-Окт-2014 19:28 (спустя 9 месяцев 25 дней)

[Q] 

Спасибо, великолепный фильм!
[Профиль]  [ЛС] 

Дмитрий2011d

Шкипер

Пост 23-Ноя-2014 21:24 (спустя 23 дня)

[Q] 

спасибо!!!!)))) Лови бочку
[Профиль]  [ЛС] 
Показать сообщения:    
Ответить на тему

Текущее время: Сегодня 06:23

Часовой пояс: GMT + 4



Вы не можете начинать темы
Вы не можете отвечать на сообщения
Вы не можете редактировать свои сообщения
Вы не можете удалять свои сообщения
Вы не можете голосовать в опросах
Вы не можете прикреплять файлы к сообщениям
Вы не можете скачивать файлы

▼ Вниз