ML
     
  Уважаемый Гость!
Вы можете поддержать проект и зарегистрироваться у наших партнеров - онлайн-стратегия MyLands. При регистрации в игре Вы получите код, который сможете активировать после регистрации на pirat.ca и получить 1000 дублонов.

Ваш код:
ba41f7961e0b4717aed6a401d955262223b8f6c4
 
     

Оленья охота (Юрий Борецкий) [1981 г., военный, DVDRip]

Ответить на тему
 
Автор
Сообщение

Пост 14-Ноя-2013 12:35

[Q] 

vasilich619

Флибустьер

-Оленья охота-- Производство: СССР / Студия Горького
Режиссер: Юрий Борецкий
Жанр: военный
Год выпуска: 1981 г.
Продолжительность: 01:09:44
Дата выхода DVD: 13 октября 2009, «Азимут»
В ролях: Александр Яковлев, Николай Гринько, Михаил Волонтир, Всеволод Сафонов, Михаил Жигалов, Евгения Сабельникова, Федор Сухов, Игорь Пушкарев, Георгий Назаренко, Александр Голобородько, Юрий Кулик, Владимир Шихов, Дмитрий Писаренко, Стефания Станюта...-Описание: Весна 1942 года. Эшелон с эвакуировавшимися детьми из Двинского детского дома попадает под авиабомбардировку гитлеровцев. После налета дети оказываются на оккупированной территории в районе действий белорусского партизанского отряда. Для обнаружения народных мстителей фашисты решают использовать детей.-Сэмпл КиноПоиск
Качество видео: DVDRip
Контейнер: AVI
Видео кодек: XviD
Аудио кодек: AC3
Видео: 720x560 (1.286), 25.000 fps, MPEG4, XviD, 2 342 Kbps (0.232 bit/pixel)
Аудио: Русский, оригинал, AC-3, 48.0 KHz, 2 ch, 448 Kbps, CBR
Cубтитры: отсутствуют
General
Complete name : D:\ВОЕННЫЕ\Olenya.okhota.1981.XviD.DVDRip.avi
Format : AVI
Format/Info : Audio Video Interleave
File size : 1.36 GiB
Duration : 1h 9mn
Overall bit rate : 2 800 Kbps
Writing application : VirtualDubMod 1.5.10.2 (build 2540/release)
Writing library : VirtualDubMod build 2540/release
Video
ID : 0
Format : MPEG-4 Visual
Format profile : Streaming [email protected]
Format settings, BVOP : Yes
Format settings, QPel : No
Format settings, GMC : No warppoints
Format settings, Matrix : Default (H.263)
Codec ID : XVID
Codec ID/Hint : XviD
Duration : 1h 9mn
Bit rate : 2 342 Kbps
Width : 720 pixels
Height : 560 pixels
Display aspect ratio : 1.286
Frame rate : 25.000 fps
Resolution : 24 bits
Colorimetry : 4:2:0
Scan type : Progressive
Bits/(Pixel*Frame) : 0.232
Stream size : 1.14 GiB (84%)
Writing library : XviD 1.2.1 (UTC 2008-12-04)
Audio
ID : 1
Format : AC-3
Format/Info : Audio Coding 3
Codec ID : 2000
Duration : 1h 9mn
Bit rate mode : Constant
Bit rate : 448 Kbps
Channel(s) : 2 channels
Channel positions : L R
Sampling rate : 48.0 KHz
Stream size : 223 MiB (16%)
Alignment : Split accross interleaves
Interleave, duration : 40 ms (1.00 video frame)
Interleave, preload duration : 500 ms
Download / Скачать

Хотите скачать бесплатно? Зарегистрируйтесь на сайте (ссылка на регистрацию). Pirat.ca - самый быстрый торрент трекер в рунете!

Как скачивать  ·   Что такое торрент  ·   Рейтинг и ограничения

Показать сообщения:    
Ответить на тему

Текущее время: Сегодня 14:48

Часовой пояс: GMT + 4



Вы не можете начинать темы
Вы не можете отвечать на сообщения
Вы не можете редактировать свои сообщения
Вы не можете удалять свои сообщения
Вы не можете голосовать в опросах
Вы не можете прикреплять файлы к сообщениям
Вы не можете скачивать файлы

▼ Вниз