ML
     
  Уважаемый Гость!
Вы можете поддержать проект и зарегистрироваться у наших партнеров - онлайн-стратегия MyLands. При регистрации в игре Вы получите код, который сможете активировать после регистрации на pirat.ca и получить 1000 дублонов.

Ваш код:
9cfe162481db953a6549f32179d7b3900b8b8643
 
     

Охота на единорога (Владимир Лаптев) [1989 г., драма, военный, DVDRip]

Ответить на тему
 
Автор
Сообщение

Пост 15-Ноя-2013 12:01

[Q] 

vasilich619

Флибустьер

-Охота на единорога -- Производство: СССР / Свердловская киностудия
Режиссер: Владимир Лаптев
Жанр: драма, военный
Год выпуска: 1989 г.
Продолжительность: 01:14:22
В ролях: Сергей Быстрицкий, Виталий Зикора, Виктор Соловьев, Владимир Завьялов, Юрий Лазарев, Виталий Яковлев, Гедиминас Гирдвайнис, В.Кадочников, Альгис Матуленис ....-Описание: Фильм снят по повести В. Б. Туболева «Чужое небо»Начало войны. Выпускник летного училища Тесленко летит ведомым у командира эскадрильи Грабаря. Их сбивают, и Тесленко оказывается в лагере при немецком аэродроме, где советские летчики с ограниченным запасом горючего служат живыми мишенями для немецких курсантов летной школы. Однако Тесленко удалось совершить побег. Добравшись до расположения советских войск, он был арестован и осужден по 58-й статье…-Сэмпл КиноПоиск
Качество видео: DVDRip
Контейнер: AVI
Видео кодек: XviD
Аудио кодек: AC3
Видео: 704x528 (4:3), 25.000 fps, MPEG4, XviD, 1 906 Kbps (0.205 bit/pixel)
Аудио: Русский, оригинал, AC-3, 48.0 KHz, 2 ch, 192 Kbps, CBR
Cубтитры: отсутствуют
Хм, до сих пор ни одного отзыва… Да и оценок — раз, два и обчёлся. Такое чувство, что мало кто вообще смотрел это кино. А ведь оно того заслуживает! Лично я, наткнувшись на «Охоту…» в телесетке, всегда досматриваю её до конца (благо хронометраж позволяет). Зацепила она меня, и ничего с этим не поделаешь.
Хотя на первый взгляд — фильмец как фильмец. Снят за три рубля (это бросается в глаза) и как эти же самые три рубля прост. О сюжете даже не буду ничего говорить: он почти целиком пересказан в описании. Не стоит ждать эпических экшн-сцен или крутых спецэффектов (с деньгами-то напряг). В общем, типичный советский кинопродукт перестроечной поры.
Но, знаете, именно эта простота и подкупает! Здесь нет ничего лишнего: нет бессмысленных событий, фраз и поступков, никакого ура-патриотического пафоса или ходульно-героических образов… Просто суровая правда жизни. И вообще, как мне представляется, это кино не столько о войне, сколько о человеческой несправедливости. Героям хочется сопереживать, и даже немецкого полковника почти жаль. Не раздражает даже обязательная тема репрессий — они были, и отрицать это глупо… Реализм, незамысловатость, какая-то искренность, что ли. Смотришь и веришь.
«Охота на единорога» не претендует на звание шедевра, но в этом фильме есть душа, и это главное.
General
Complete name : D:\ВОЕННЫЕ\Ohota_na_edinoroga_DVDRip.avi
Format : AVI
Format/Info : Audio Video Interleave
File size : 1.09 GiB
Duration : 1h 14mn
Overall bit rate : 2 108 Kbps
Movie name : Охота на единорога
Writing application : VirtualDubModRus 1.5.10.2 (build 2542/release)
Copyright : pirat.ca (2012)
Video
ID : 0
Format : MPEG-4 Visual
Format profile : Streaming [email protected]
Format settings, BVOP : Yes
Format settings, QPel : No
Format settings, GMC : No warppoints
Format settings, Matrix : Custom
Codec ID : XVID
Codec ID/Hint : XviD
Duration : 1h 14mn
Bit rate : 1 906 Kbps
Width : 704 pixels
Height : 528 pixels
Display aspect ratio : 4/3
Frame rate : 25.000 fps
Resolution : 24 bits
Colorimetry : 4:2:0
Scan type : Progressive
Bits/(Pixel*Frame) : 0.205
Stream size : 1 014 MiB (90%)
Writing library : XviD 1.2.1 (UTC 2008-12-04)
Audio
ID : 1
Format : AC-3
Format/Info : Audio Coding 3
Codec ID : 2000
Duration : 1h 14mn
Bit rate mode : Constant
Bit rate : 192 Kbps
Channel(s) : 2 channels
Channel positions : L R
Sampling rate : 48.0 KHz
Video delay : 8ms
Stream size : 102 MiB (9%)
Alignment : Split accross interleaves
Interleave, duration : 40 ms (1.00 video frame)
Interleave, preload duration : 500 ms
Download / Скачать

Хотите скачать бесплатно? Зарегистрируйтесь на сайте (ссылка на регистрацию). Pirat.ca - самый быстрый торрент трекер в рунете!

Как скачивать  ·   Что такое торрент  ·   Рейтинг и ограничения

Пост 15-Ноя-2013 13:24 (спустя 1 час 22 минуты)

Топик был перенесен из форума Наше кино (Трюм) в форум Советское кино
aleksey99
 

vovan200976

Флибустьер

Пост 15-Ноя-2013 13:49 (спустя 1 час 48 минут)

[Q] 

скажите а у Вса списка раздач фильмов про войну нет ????
[Профиль]  [ЛС] 

ZAMOK

Корсар

Пост 30-Май-2014 23:48 (спустя 6 месяцев 15 дней)

[Q] 

Про войну это свято. Лови бочку

_________________
Не бойся того,с чем не сталкивался.
[Профиль]  [ЛС] 
Показать сообщения:    
Ответить на тему

Текущее время: Сегодня 06:04

Часовой пояс: GMT + 4



Вы не можете начинать темы
Вы не можете отвечать на сообщения
Вы не можете редактировать свои сообщения
Вы не можете удалять свои сообщения
Вы не можете голосовать в опросах
Вы не можете прикреплять файлы к сообщениям
Вы не можете скачивать файлы

▼ Вниз