ML
     
  Уважаемый Гость!
Вы можете поддержать проект и зарегистрироваться у наших партнеров - онлайн-стратегия MyLands. При регистрации в игре Вы получите код, который сможете активировать после регистрации на pirat.ca и получить 1000 дублонов.

Ваш код:
4fbd9898b6f10799a3e8edf60f31febd2bc15453
 
     

Стакан воды (Юлий Карасик) [1979 г., мелодрама, комедия, история, DVDRip] [Реставрированная версия]

Ответить на тему
 
Автор
Сообщение

Пост 17-Ноя-2013 15:21

[Q] 

Koralina

Стакан воды (2 серии) Реставрированная версия Производство: СССР
Режиссер: Юлий Карасик
Жанр: мелодрама, комедия, история
Год выпуска: 1979 г.
Продолжительность: 02:08:12
Российская премьера: 25 августа 1979
Дата выхода DVD: 30 марта 2010
В ролях: Кирилл Лавров, Алла Демидова, Наталья Белохвостикова, Светлана Смирнова, Петерис Гаудиньш, Игорь Дмитриев, Юрис Стренга
Описание: Когда маленькое государство оказывается под угрозой захвата со стороны намного более сильного, спасти его может только одно: появление конкурента, сравнимого с захватчиком.
В изящной и остроумной пьесе Скриба военные действия разворачиваются вокруг молодого офицера, в которого влюбились одновременно скромная продавщица ювелирного магазина, всесильная герцогиня Мальборо и сама королева Англии.


Качество видео: DVDRip
Контейнер: AVI
Видео кодек: XviD
Аудио кодек: AC3
Видео: 704x528 (1.33:1), 25 fps, XviD build 65 ~1422 kbps avg, 0.15 bit/pixel
Аудио: 48 kHz, AC3 Dolby Digital, 2/0 (L,R) ch, ~192 kbps

Общее
Полное имя : D:\Stakan.vody.1979.DVDRip.avi
Формат : AVI
Формат/Информация : Audio Video Interleave
Размер файла : 1,45 Гбайт
Продолжительность : 2 ч. 8 м.
Общий поток : 1624 Кбит/сек
Режиссёр : Last Boy Scout
Программа кодирования : VirtualDubMod 1.5.10.3 | www.virtualdub-fr.org || (build 2550/release)
Примечание : DVDRip
Видео
Идентификатор : 0
Формат : MPEG-4 Visual
Профиль формата : Advanced [email protected]
Параметр BVOP формата : 1
Параметр QPel формата : Нет
Параметр GMC формата : Без точки перехода
Параметр матрицы формата : Выборочная
Идентификатор кодека : XVID
Идентификатор кодека/Подсказка : XviD
Продолжительность : 2 ч. 8 м.
Битрейт : 1423 Кбит/сек
Ширина : 704 пикселя
Высота : 528 пикселей
Соотношение сторон : 4:3
Частота кадров : 25,000 кадров/сек
Цветовое пространство : YUV
Субдискретизация насыщенности : 4:2:0
Битовая глубина : 8 бит
Тип развёртки : Прогрессивная
Метод сжатия : С потерями
Бит/(Пиксели*Кадры) : 0.153
Размер потока : 1,27 Гбайт (88%)
Библиотека кодирования : XviD 65
Аудио
Идентификатор : 1
Формат : AC-3
Формат/Информация : Audio Coding 3
Расширение режима : CM (complete main)
Параметр Endianness формата : Big
Идентификатор кодека : 2000
Продолжительность : 2 ч. 8 м.
Вид битрейта : Постоянный
Битрейт : 192 Кбит/сек
Каналы : 2 канала
Расположение каналов : Front: L R
Частота : 48,0 КГц
Битовая глубина : 16 бит
Метод сжатия : С потерями
Размер потока : 176 Мбайт (12%)
Выравнивание : Разделение по промежуткам
Продолжительность промежутка : 40 мс. (1,00 видеокадр)
Время предзагрузки промежутка : 500 мс.
Download / Скачать

Хотите скачать бесплатно? Зарегистрируйтесь на сайте (ссылка на регистрацию). Pirat.ca - самый быстрый торрент трекер в рунете!

Как скачивать  ·   Что такое торрент  ·   Рейтинг и ограничения

Пост 17-Ноя-2013 15:34 (спустя 13 минут)

Топик был перенесен из форума Наше кино (Трюм) в форум Советское кино
aleksey99
 

destroymp

Штурман

Пост 29-Янв-2015 18:20 (спустя 1 год 2 месяца)

[Q] 

Товарищи, те кто скачал, огроменная просьба вернуться ненадолго на раздачу, т.к. мне необходимо докачать сей чудесный фильм!!)) Раздающему респект!
[Профиль]  [ЛС] 

xzxscorpxzx

Флибустьер

Пост 14-Фев-2016 01:44 (спустя 1 год)

[Q] 

фигня)мне не понравился
[Профиль]  [ЛС] 
Показать сообщения:    
Ответить на тему

Текущее время: Сегодня 19:57

Часовой пояс: GMT + 4



Вы не можете начинать темы
Вы не можете отвечать на сообщения
Вы не можете редактировать свои сообщения
Вы не можете удалять свои сообщения
Вы не можете голосовать в опросах
Вы не можете прикреплять файлы к сообщениям
Вы не можете скачивать файлы

▼ Вниз