ML
     
  Уважаемый Гость!
Вы можете поддержать проект и зарегистрироваться у наших партнеров - онлайн-стратегия MyLands. При регистрации в игре Вы получите код, который сможете активировать после регистрации на pirat.ca и получить 1000 дублонов.

Ваш код:
4fbd9898b6f10799a3e8edf60f31febd2bc15453
 
     

Ворота в небо (Дамир Вятич-Бережных) [1983 г., военный, TVRip]

Ответить на тему
 
Автор
Сообщение

Пост 03-Дек-2013 23:58

[Q] 

vasilich619

Флибустьер

-Ворота в небо-- Производство: СССР / Мосфильм
Режиссер: Дамир Вятич-Бережных
Жанр: военный
Год выпуска: 1983 г.
Продолжительность: 01:23:20
В ролях: Георгий Жжёнов, Валерий Хромушкин, Анатолий Васильев, Эрнст Романов, Юрий Назаров, Татьяна Божок, Владимир Носик, Юрий Мартынов, Улдис Думпис, Улдис Лиелдидж, Янина Лисовская, Карлис Зушманис, Иван Косых, Нартай Бегалин, Анатолий Ведёнкин, Владимир Гуляев, Юозас Киселюс, Владимир Кузнецов, Надежда Матушкина, Ирена Симонайтите, Александр Январёв, Витаутас Канцлерис, Арийс Гейкинс-Описание: Танковый корпус генерала Шубникова весной 1945 года был уже на подступах к Берлину. Отставшие тылы не обеспечивали регулярность подвоза горючего. Полковнику Лебеденко было поручено организовать базу горючесмазочных материалов в Химмельсфорте (в переводе - Ворота в небо), где небольшой группе советских бойцов пришлось вступить в неравный бой с остатками вражеского танкового полка, пытавшегося прорваться через город.-Сэмпл КиноПоиск
Качество видео: TVRip
Контейнер: AVI
Видео кодек: XviD
Аудио кодек: MP3
Видео: 672x288 (2.35:1), 25.000 fps, MPEG4, XviD,1 670 Kbps
Аудио: Русский, оригинал, 48.0 KHz, 2 ch, MP3, 192 Kbps, CBR
Cубтитры: отсутствуют
General
Complete name : D:\НАШЕ\Vorota_v_nebo.avi
Format : AVI
Format/Info : Audio Video Interleave
File size : 1.09 GiB
Duration : 1h 23mn
Overall bit rate : 1 872 Kbps
Writing application : VirtualDubModRus 1.5.10.2 (build 2542/release)
Writing library : VirtualDubMod build 2542/release
Video
ID : 0
Format : MPEG-4 Visual
Format profile : Streaming [email protected]
Format settings, BVOP : Yes
Format settings, QPel : No
Format settings, GMC : No warppoints
Format settings, Matrix : Default (MPEG)
Muxing mode : Packed bitstream
Codec ID : XVID
Codec ID/Hint : XviD
Duration : 1h 23mn
Bit rate : 1 670 Kbps
Width : 672 pixels
Height : 288 pixels
Display aspect ratio : 2.35
Frame rate : 25.000 fps
Resolution : 24 bits
Colorimetry : 4:2:0
Scan type : Progressive
Bits/(Pixel*Frame) : 0.345
Stream size : 997 MiB (89%)
Writing library : XviD 64
Audio
ID : 1
Format : MPEG Audio
Format version : Version 1
Format profile : Layer 3
Codec ID : 55
Codec ID/Hint : MP3
Duration : 1h 23mn
Bit rate mode : Constant
Bit rate : 192 Kbps
Channel(s) : 2 channels
Sampling rate : 48.0 KHz
Resolution : 16 bits
Stream size : 115 MiB (10%)
Alignment : Aligned on interleaves
Interleave, duration : 40 ms (1.00 video frame)
Interleave, preload duration : 504 ms
Writing library : LAME3.97
Encoding settings : -m j -V 4 -q 0 -b 192
Download / Скачать

Хотите скачать бесплатно? Зарегистрируйтесь на сайте (ссылка на регистрацию). Pirat.ca - самый быстрый торрент трекер в рунете!

Как скачивать  ·   Что такое торрент  ·   Рейтинг и ограничения

vovan200976

Флибустьер

Пост 04-Дек-2013 08:50 (спустя 8 часов)

[Q] 

Спасибо за хороший фильм !!! Лови бочку
[Профиль]  [ЛС] 

Пост 04-Дек-2013 09:35 (спустя 44 минуты)

Топик был перенесен из форума Наше кино (Трюм) в форум Советское кино
erchine
 

Iaromir

Штурман

Пост 22-Дек-2013 12:04 (спустя 18 дней)

[Q] 

Спасибо за хороший фильм !!! Автору респект!!! Спасибо!!!
[Профиль]  [ЛС] 

vasilich619 ®

Флибустьер

4713

Пост 22-Дек-2013 21:19 (спустя 9 часов)

[Q] 

Приятного просмотра!

_________________
Всем моим ошибкам есть оправдание: я живу в первый раз!
[Профиль]  [ЛС] 
Показать сообщения:    
Ответить на тему

Текущее время: Сегодня 19:56

Часовой пояс: GMT + 4



Вы не можете начинать темы
Вы не можете отвечать на сообщения
Вы не можете редактировать свои сообщения
Вы не можете удалять свои сообщения
Вы не можете голосовать в опросах
Вы не можете прикреплять файлы к сообщениям
Вы не можете скачивать файлы

▼ Вниз