ML
     
  Уважаемый Гость!
Вы можете поддержать проект и зарегистрироваться у наших партнеров - онлайн-стратегия MyLands. При регистрации в игре Вы получите код, который сможете активировать после регистрации на pirat.ca и получить 1000 дублонов.

Ваш код:
f612af22ea70acf5cbe90707ac5a076d215f8f7f
 
     

Ищите женщину (Алла Сурикова) [1982 г., Детектив, комедия, DVDRip]

Ответить на тему
 
Автор
Сообщение

Пост 04-Янв-2012 23:34

[Q] 

avzaytsev

Морской Волк

Ищите женщину
Год выпуска: 1982
Мировая премьера: 1 января 1983
Производство: СССР
Жанр: Детектив, комедия
Продолжительность: 02:25:46
Режиссер: Алла Сурикова
В ролях: Софико Чиаурели, Леонид Куравлёв, Сергей Юрский, Елена Соловей, Александр Абдулов, Людмила Дмитриева, Елена Укращёнок, Леонид Ярмольник
Описание: Телефильм по мотивам пьесы французского драматурга Робера Тома "Цыпленок и попугаиха".
В нотариальной конторе мэтра Роше обнаружен покойник. В поиски убийцы включается секретарша конторы мадемуазель Алиса Постик - женщина неукротимой энергии. Постепенно выясняется, что чрезмерная активность самодеятельного сыщика не лучшим образом влияет на расследование преступления...
IMDB, КиноПоиск
Источник/Качество: DVDRip
Формат: AVI
Видео кодек: DivX
Аудио кодек: MP3
Видео: 512x384 (1.33:1), 25 fps, DivX Codec 4.x ~1141 kbps avg, 0.23 bit/pixel
Аудио: 44.100 kHz, MPEG Layer 3, 2 ch, ~127.70 kbps avg
Общее
Полное имя : Ищите женщину (1 серия).avi
Формат : AVI
Формат/Информация : Audio Video Interleave
Размер файла : 695 Мбайт
Продолжительность : 1 ч. 15 м.
Общий поток : 1279 Кбит/сек
Библиотека кодирования : VirtualDub build 13130/release
Видео
Идентификатор : 0
Формат : MPEG-4 Visual
Параметр BVOP формата : Да
Параметр QPel формата : Нет
Параметр GMC формата : Без точки перехода
Параметр матрицы формата : Default (H.263)
Идентификатор кодека : DIVX
Идентификатор кодека/Информация : Project Mayo
Идентификатор кодека/Подсказка : DivX 4
Продолжительность : 1 ч. 15 м.
Битрейт : 1141 Кбит/сек
Ширина : 512 пикселей
Высота : 384 пикселя
Соотношение сторон : 4:3
Частота кадров : 25,000 кадров/сек
Цветовое пространство : YUV
Субдискретизация насыщенности : 4:2:0
Битовая глубина : 8 бит
Тип развёртки : Прогрессивная
Метод сжатия : С потерями
Бит/(Пиксели*Кадры) : 0.232
Размер потока : 620 Мбайт (89%)
Аудио
Идентификатор : 1
Формат : MPEG Audio
Версия формата : Version 1
Профиль формата : Layer 3
Идентификатор кодека : 55
Идентификатор кодека/Подсказка : MP3
Продолжительность : 1 ч. 15 м.
Вид битрейта : Постоянный
Битрейт : 128 Кбит/сек
Каналы : 2 канала
Частота : 44,1 КГц
Метод сжатия : С потерями
Размер потока : 69,4 Мбайт (10%)
Выравнивание : Разделение по промежуткам
Продолжительность промежутка : 40 мс. (1,00 видеокадр)
Время предзагрузки промежутка : 467 мс.
Источник/Качество: DVDRip
Формат: AVI
Видео кодек: DivX
Аудио кодек: MP3
Видео: 512x384 (1.33:1), 25 fps, DivX Codec 4.x ~1253 kbps avg, 0.26 bit/pixel
Аудио: 44.100 kHz, MPEG Layer 3, 2 ch, ~127.70 kbps avg
Общее
Полное имя : Ищите женщину (2 серия).avi
Формат : AVI
Формат/Информация : Audio Video Interleave
Размер файла : 694 Мбайт
Продолжительность : 1 ч. 9 м.
Общий поток : 1391 Кбит/сек
Библиотека кодирования : VirtualDub build 13130/release
Видео
Идентификатор : 0
Формат : MPEG-4 Visual
Параметр BVOP формата : Да
Параметр QPel формата : Нет
Параметр GMC формата : Без точки перехода
Параметр матрицы формата : Default (H.263)
Идентификатор кодека : DIVX
Идентификатор кодека/Информация : Project Mayo
Идентификатор кодека/Подсказка : DivX 4
Продолжительность : 1 ч. 9 м.
Битрейт : 1254 Кбит/сек
Ширина : 512 пикселей
Высота : 384 пикселя
Соотношение сторон : 4:3
Частота кадров : 25,000 кадров/сек
Цветовое пространство : YUV
Субдискретизация насыщенности : 4:2:0
Битовая глубина : 8 бит
Тип развёртки : Прогрессивная
Метод сжатия : С потерями
Бит/(Пиксели*Кадры) : 0.255
Размер потока : 626 Мбайт (90%)
Аудио
Идентификатор : 1
Формат : MPEG Audio
Версия формата : Version 1
Профиль формата : Layer 3
Идентификатор кодека : 55
Идентификатор кодека/Подсказка : MP3
Продолжительность : 1 ч. 9 м.
Вид битрейта : Постоянный
Битрейт : 128 Кбит/сек
Каналы : 2 канала
Частота : 44,1 КГц
Метод сжатия : С потерями
Размер потока : 63,8 Мбайт (9%)
Выравнивание : Разделение по промежуткам
Продолжительность промежутка : 40 мс. (1,00 видеокадр)
Время предзагрузки промежутка : 467 мс.
  • В начале 1-й серии Алиса смотрит по телевизору детектив «Свидетелей надо прикончить» с Бельмондо (которого она обожает) в главной роли, и далее пересказывает содержание фильма по телефону подруге. Использованы кадры из фильма «Частный детектив» (L’Alpagueur), в котором главную роль действительно исполняет Бельмондо. Сюжет, рассказываемый Алисой, разумеется, не имеет ничего общего с сюжетом «Частного детектива».
  • В начале фильма идет панорама Парижа, которую снимали без всякого разрешения на съемку, просто установив камеру в машине.





  • Download / Скачать

    Хотите скачать бесплатно? Зарегистрируйтесь на сайте (ссылка на регистрацию). Pirat.ca - самый быстрый торрент трекер в рунете!

    Как скачивать  ·   Что такое торрент  ·   Рейтинг и ограничения

    Пост 05-Янв-2012 00:38 (спустя 1 час 4 минуты)

    Топик был перенесен из форума Наше Кино в форум Советское кино

    oliks
     

    Pesok

    Гроза морей

    Пост 07-Янв-2012 11:15 (спустя 2 дня 11 часов)

    [Q] 

    спасибо!

    _________________
    [Профиль]  [ЛС] 

    dimkoba

    35106

    Пост 17-Янв-2012 21:43 (спустя 10 дней)

    [Q] 

    да интересный детектив

    _________________
    [Профиль]  [ЛС] 

    bmf2000

    Корсар

    Пост 09-Мар-2012 10:56 (спустя 1 месяц 22 дня)

    [Q] 

    Спасибо!
    [Профиль]  [ЛС] 

    Юлясик

    Лоцман

    Пост 06-Авг-2012 23:38 (спустя 4 месяца 28 дней)

    [Q] 

    [Профиль]  [ЛС] 

    Анна Браун

    Морской Волк

    Пост 23-Фев-2015 02:49 (спустя 2 года 6 месяцев)

    [Q] 

    Давно хотела посмотреть. Спасибо!!!
    [Профиль]  [ЛС] 

    Семен

    Морской Волк

    Пост 25-Мар-2015 21:12 (спустя 1 месяц 2 дня)

    [Q] 

    На любителя Спасибо!!! Возможно что то есть
    [Профиль]  [ЛС] 

    СерКат

    Корсар

    Пост 09-Май-2015 00:40 (спустя 1 месяц 14 дней)

    [Q] 

    спасибо,кино со смыслом,артисты известные,смотреть стоит,спасибо Лови бочку
    [Профиль]  [ЛС] 
    Показать сообщения:    
    Ответить на тему

    Текущее время: Сегодня 00:25

    Часовой пояс: GMT + 4



    Вы не можете начинать темы
    Вы не можете отвечать на сообщения
    Вы не можете редактировать свои сообщения
    Вы не можете удалять свои сообщения
    Вы не можете голосовать в опросах
    Вы не можете прикреплять файлы к сообщениям
    Вы не можете скачивать файлы

    ▼ Вниз