ML
     
  Уважаемый Гость!
Вы можете поддержать проект и зарегистрироваться у наших партнеров - онлайн-стратегия MyLands. При регистрации в игре Вы получите код, который сможете активировать после регистрации на pirat.ca и получить 1000 дублонов.

Ваш код:
500cb7bd8d2cec9a8aba647a87ce41c4b76f06bd
 
     

Долгие вёрсты войны (Александр Карпов) [1975 г., военный, DVDRip]

Ответить на тему
 
Автор
Сообщение

Пост 02-Мар-2014 23:33

[Q] 

Мархуз

-Долгие вёрсты войны-- Производство: СССР
Режиссер: Александр Карпов
Жанр: военный
Год выпуска: 1975 г.
Продолжительность: 03:26:35
В ролях: Вадим Яковлев, Николай Федорцов, Юрий Дуванов, Александр Вдовин, Александр Серский, Борис Щербаков, Виктор Петров, Александр Карпов, Борис Руднев, Геннадий Овсянников, Александр Инжеватов, Александр Жданов, Павел Первушин, Анатолий Веденский, Федр Шмаков, Николай Сморчков, Эдуард Горячий, Павел Кормушин, АнатолийЧерноцкий, Владимир Грицевский, Виктор Уральский, Светлана Крючкова, Михаил Матвеев.-Описание: По мотивам повестей Василия Быкова. В основе сюжета-три боевых эпизода, относящихся к началу войны, коренному перелому в ходе войны, и окончательному разгрому врага.-Качество видео: DVDRip
Контейнер: AVI
Видео кодек: XviD
Аудио кодек: MP3
Видео: 720х576 (1,25:1),25 fps, XviD MPEG-4~1500 kbps avg, 0,14 bit/pixel
Аудио: 44,100 KHz, MPEG Layer 3,2 ch,~128 000 kgps avg
Cубтитры: отсутствуют
Первая серия "Журавлиный крик" продолжительность (01:15:35).
Вторая серия "Атака с ходу" продолжительность (01:06:34)
Третья серия "На восходе солнца" продолжительность (01:04:36)
Общее
Полное имя : E:\Книги\Фильмы\Dolgie_versty_voiny_[Pirat.ca].torrent\Долгие вёрсты войны 1серия.avi
Формат : AVI
Формат/Информация : Audio Video Interleave
Размер файла : 886 Мбайт
Продолжительность : 1 ч. 15 м.
Общий поток : 1638 Кбит/сек
Название фильма : Долгие версты войны. Серия 1. "Журавлиный крик"
Режиссёр : chizhik
Жанр : Historical, war
Формат оригинала/Имя : Movie
Правообладатель : vas8084
Видео
Идентификатор : 0
Формат : MPEG-4 Visual
Профиль формата : [email protected]
Параметр BVOP формата : Да
Параметр QPel формата : Нет
Параметр GMC формата : Без точки перехода
Параметр матрицы формата : Default (H.263)
Идентификатор кодека : XVID
Идентификатор кодека/Подсказка : XviD
Продолжительность : 1 ч. 15 м.
Битрейт : 1501 Кбит/сек
Ширина : 720 пикселей
Высота : 576 пикселей
Соотношение сторон : 5:4
Частота кадров : 25,000 кадров/сек
Стандарт вещания : PAL
Цветовое пространство : YUV
Субдискретизация насыщенности : 4:2:0
Битовая глубина : 8 бит
Тип развёртки : Прогрессивная
Метод сжатия : С потерями
Бит/(Пиксели*Кадры) : 0.145
Размер потока : 811 Мбайт (92%)
Аудио
Идентификатор : 1
Формат : MPEG Audio
Версия формата : Version 1
Профиль формата : Layer 3
Режим : Joint stereo
Расширение режима : MS Stereo
Идентификатор кодека : 55
Идентификатор кодека/Подсказка : MP3
Продолжительность : 1 ч. 15 м.
Вид битрейта : Постоянный
Битрейт : 128 Кбит/сек
Каналы : 2 канала
Частота : 44,1 КГц
Общее
Полное имя : E:\Книги\Фильмы\Dolgie_versty_voiny_[Pirat.ca].torrent\Долгие вёрсты войны 2серия.avi
Формат : AVI
Формат/Информация : Audio Video Interleave
Размер файла : 780 Мбайт
Продолжительность : 1 ч. 6 м.
Общий поток : 1638 Кбит/сек
Название фильма : Долгие версты войны. Серия 2. "Атака сходу"
Режиссёр : chizhik
Жанр : Historical, war
Формат оригинала/Имя : Movie
Правообладатель : vas8084
Видео
Идентификатор : 0
Формат : MPEG-4 Visual
Профиль формата : [email protected]
Параметр BVOP формата : Да
Параметр QPel формата : Нет
Параметр GMC формата : Без точки перехода
Параметр матрицы формата : Default (H.263)
Идентификатор кодека : XVID
Идентификатор кодека/Подсказка : XviD
Продолжительность : 1 ч. 6 м.
Битрейт : 1500 Кбит/сек
Ширина : 720 пикселей
Высота : 576 пикселей
Соотношение сторон : 5:4
Частота кадров : 25,000 кадров/сек
Стандарт вещания : PAL
Цветовое пространство : YUV
Субдискретизация насыщенности : 4:2:0
Битовая глубина : 8 бит
Тип развёртки : Прогрессивная
Метод сжатия : С потерями
Бит/(Пиксели*Кадры) : 0.145
Размер потока : 714 Мбайт (92%)
Аудио
Идентификатор : 1
Формат : MPEG Audio
Версия формата : Version 1
Профиль формата : Layer 3
Режим : Joint stereo
Расширение режима : MS Stereo
Идентификатор кодека : 55
Идентификатор кодека/Подсказка : MP3
Продолжительность : 1 ч. 6 м.
Вид битрейта : Постоянный
Битрейт : 128 Кбит/сек
Каналы : 2 канала
Частота : 44,1 КГц
Метод сжатия : С потерями
Размер потока : 61,0 Мбайт (8%)
Выравнивание : Разделение по промежуткам
Продолжительность промежутка : 40 мс. (1,00 видеокадр)
Время предзагрузки промежутка : 500 мс.
Библиотека кодирования : LAME3.98.2
Общее
Полное имя : E:\Книги\Фильмы\Dolgie_versty_voiny_[Pirat.ca].torrent\Долгие вёрсты войны 3серия.avi
Формат : AVI
Формат/Информация : Audio Video Interleave
Размер файла : 757 Мбайт
Продолжительность : 1 ч. 4 м.
Общий поток : 1638 Кбит/сек
Название фильма : Долгие версты войны. Серия 3. "На восходе солнца"
Режиссёр : chizhik
Жанр : Historical, war
Формат оригинала/Имя : Movie
Правообладатель : vas8084
Видео
Идентификатор : 0
Формат : MPEG-4 Visual
Профиль формата : [email protected]
Параметр BVOP формата : Да
Параметр QPel формата : Нет
Параметр GMC формата : Без точки перехода
Параметр матрицы формата : Default (H.263)
Идентификатор кодека : XVID
Идентификатор кодека/Подсказка : XviD
Продолжительность : 1 ч. 4 м.
Битрейт : 1500 Кбит/сек
Ширина : 720 пикселей
Высота : 576 пикселей
Соотношение сторон : 5:4
Частота кадров : 25,000 кадров/сек
Стандарт вещания : PAL
Цветовое пространство : YUV
Субдискретизация насыщенности : 4:2:0
Битовая глубина : 8 бит
Тип развёртки : Прогрессивная
Метод сжатия : С потерями
Бит/(Пиксели*Кадры) : 0.145
Размер потока : 693 Мбайт (92%)
Аудио
Идентификатор : 1
Формат : MPEG Audio
Версия формата : Version 1
Профиль формата : Layer 3
Режим : Joint stereo
Расширение режима : MS Stereo
Идентификатор кодека : 55
Идентификатор кодека/Подсказка : MP3
Продолжительность : 1 ч. 4 м.
Вид битрейта : Постоянный
Битрейт : 128 Кбит/сек
Каналы : 2 канала
Частота : 44,1 КГц
Метод сжатия : С потерями
Размер потока : 59,1 Мбайт (8%)
Выравнивание : Разделение по промежуткам
Продолжительность промежутка : 40 мс. (1,00 видеокадр)
Время предзагрузки промежутка : 500 мс.
Библиотека кодирования : LAME3.98.2
Раздача с 15.00 до 3.30 (время московское)
Download / Скачать

Хотите скачать бесплатно? Зарегистрируйтесь на сайте (ссылка на регистрацию). Pirat.ca - самый быстрый торрент трекер в рунете!

Как скачивать  ·   Что такое торрент  ·   Рейтинг и ограничения



Последний раз редактировалось: Мархуз (2014-03-03 21:11), всего редактировалось 1 раз

Пост 03-Мар-2014 21:17 (спустя 21 час)

Топик был перенесен из форума Наше кино (Трюм) в форум Советское кино
erchine
 
Показать сообщения:    
Ответить на тему

Текущее время: Сегодня 01:44

Часовой пояс: GMT + 4



Вы не можете начинать темы
Вы не можете отвечать на сообщения
Вы не можете редактировать свои сообщения
Вы не можете удалять свои сообщения
Вы не можете голосовать в опросах
Вы не можете прикреплять файлы к сообщениям
Вы не можете скачивать файлы

▼ Вниз