ML
     
  Уважаемый Гость!
Вы можете поддержать проект и зарегистрироваться у наших партнеров - онлайн-стратегия MyLands. При регистрации в игре Вы получите код, который сможете активировать после регистрации на pirat.ca и получить 1000 дублонов.

Ваш код:
6f9ab67d502902cc72a06c406977ddb589b7f39d
 
     

Меня зовут Арлекино (Валерий Рыбарёв) [1988 г., драма, TVRip]

Ответить на тему
 
Автор
Сообщение

Пост 04-Мар-2014 02:12

[Q] 

Мархуз

-Меня зовут Арлекино-- Производство: СССР
Режиссер: Валерий Рыбарёв
Жанр: драма
Год выпуска: 1988 г.
Продолжительность: 02:06:08
В ролях: Олег Фомин, Светлана Копылова, Людмила Гаврилова, Владимир Пожидаев, Станислав Пшевлоцкий, Игорь Кечаев, Игорь Сорокин, Виктор Хозяинов, Павел Рыбарёв, Павел Прибыток, Василий Домрачев, Виктор Бегунов, Михаил Никитин, Евгений Шкаев, Николай Шишков-Описание: Парень по прозвищу Арлекино и его компания, называющая себя «волками», живут на полустанке, неподалеку от города, куда часто ездят «отдыхать» — на поиски острых ощущений. И это не просто хулиганы - по крайней мере, им так кажется. Они бьют "металлистов" и "фашиков" из идеологических соображений, утверждают свой нехитрый порядок, основанный на особого рода справедливости и праве сильного. Кроме того, сам Арлекино пытается думать о сложных общечеловеческих ценностях и связывать их с тем образом жизни, который ведет. Однако, он сталкивается с людьми, у которых - свой порядок, совсем не такой, как у главного героя. И тогда тусовочная жизнь превращается в настоящую трагедию...-Качество видео: TVRip
Контейнер: AVI
Видео кодек: XviD
Аудио кодек: MP3
Видео: 688x528 (1.30:1), 25 fps, XviD build 50 ~1908 kbps avg, 0.21 bit/pixel
Аудио: 48 kHz, MPEG Layer 3, 2 ch, ~128.00 kbps avg
Cубтитры: отсутствуют
Общее
Полное имя : E:\Книги\Фильмы\Меня зовут Арлекино\Menya_zovut_Arlekino_[Pirat.ca].torrent.avi
Формат : AVI
Формат/Информация : Audio Video Interleave
Размер файла : 1,80 Гбайт
Продолжительность : 2 ч. 6 м.
Общий поток : 2046 Кбит/сек
Программа кодирования : VirtualDubMod 1.5.10.2 (build 2540/release)
Библиотека кодирования : VirtualDub build 35390/release
Видео
Идентификатор : 0
Формат : MPEG-4 Visual
Профиль формата : Advanced [email protected]
Параметр BVOP формата : 1
Параметр QPel формата : Нет
Параметр GMC формата : Без точки перехода
Параметр матрицы формата : Default (MPEG)
Режим смешивания : Сжатый битовый поток
Идентификатор кодека : XVID
Идентификатор кодека/Подсказка : XviD
Продолжительность : 2 ч. 6 м.
Битрейт : 1908 Кбит/сек
Ширина : 688 пикселей
Высота : 528 пикселей
Соотношение сторон : 4:3
Частота кадров : 25,000 кадров/сек
Цветовое пространство : YUV
Субдискретизация насыщенности : 4:2:0
Битовая глубина : 8 бит
Тип развёртки : Прогрессивная
Метод сжатия : С потерями
Бит/(Пиксели*Кадры) : 0.210
Размер потока : 1,68 Гбайт (93%)
Библиотека кодирования : XviD 1.2.1 (UTC 2008-12-04)
Аудио
Идентификатор : 1
Формат : MPEG Audio
Версия формата : Version 1
Профиль формата : Layer 3
Идентификатор кодека : 55
Идентификатор кодека/Подсказка : MP3
Продолжительность : 2 ч. 6 м.
Вид битрейта : Постоянный
Битрейт : 128 Кбит/сек
Каналы : 2 канала
Частота : 48,0 КГц
Метод сжатия : С потерями
Размер потока : 115 Мбайт (6%)
Выравнивание : Соединение по промежуткам
Продолжительность промежутка : 40 мс. (1,00 видеокадр)
Время предзагрузки промежутка : 504 мс.
Библиотека кодирования : LAME3.97
Настройки программы : -m s -V 4 -q 2 -lowpass 17
Раздача с 15.00 до 3.30 (время московское)
Download / Скачать

Хотите скачать бесплатно? Зарегистрируйтесь на сайте (ссылка на регистрацию). Pirat.ca - самый быстрый торрент трекер в рунете!

Как скачивать  ·   Что такое торрент  ·   Рейтинг и ограничения



Последний раз редактировалось: Мархуз (2014-03-04 02:28), всего редактировалось 1 раз

Пост 04-Мар-2014 02:51 (спустя 38 минут)

Топик был перенесен из форума Наше кино (Трюм) в форум Советское кино
erchine
 
Показать сообщения:    
Ответить на тему

Текущее время: Сегодня 16:32

Часовой пояс: GMT + 4



Вы не можете начинать темы
Вы не можете отвечать на сообщения
Вы не можете редактировать свои сообщения
Вы не можете удалять свои сообщения
Вы не можете голосовать в опросах
Вы не можете прикреплять файлы к сообщениям
Вы не можете скачивать файлы

▼ Вниз