ML
     
  Уважаемый Гость!
Вы можете поддержать проект и зарегистрироваться у наших партнеров - онлайн-стратегия MyLands. При регистрации в игре Вы получите код, который сможете активировать после регистрации на pirat.ca и получить 1000 дублонов.

Ваш код:
2932e5898d0a27592397f70b82a5834d1e70ea19
 
     

Вельд (Назим Туляходжаев) [1987 г., Ужасы / Научная фантастика, VHSRip]

Ответить на тему
 
Автор
Сообщение

Пост 04-Мар-2014 17:30

[Q] 

Мархуз

-Вельд-- Производство: СССР
Режиссер: Назим Туляходжаев
Жанр: Ужасы / Научная фантастика
Год выпуска: 1987 г.
Продолжительность: 1:21:22
В ролях: Юрий Беляев (Майкл), Нелли Пшенная (Линда), Георгий Гегечкори (Эрнандо), Тамара Схиртладзе (Кора), Хенрикас Кураускас (Полковник Стоун), Валентинас Масальскис (Дэвид Макклин), Владас Багдонас (Бартон), Дарюс Палекас (Питер), Сигуте Ларионовайте (Вэнди), Дарюс Цицинас (Том), Гитис Падегимас ("Ганди"), Кристина Андреяускайте (Сиделка).-Описание: По мотивам произведений Рэя Брэдбери. Сценарий фильма основан на рассказе «Вельд» со вплетением сюжетов нескольких других произведений («Дракон», «Корпорация „Марионетки“», «Пешеход», глава «Марсианин» из «Марсианских хроник» и эпизод смерти полковника Фрилея из «Вина из одуванчиков»). Интерпретированы эти сюжеты так, что на первый план выходит не заложенная в них психологичность, а прежде всего пугающие детали. Сцены поставлены с использованием классических приёмов фильмов ужасов. Вся атмосфера невероятно тосклива, депрессивна, безысходна. Если у Брэдбери «Вельд» прежде всего об отношениях родителей с детьми, а «Марсианин» о том, как желание чуда и любви сталкиваются с действительностью, то у Назима Туляходжаева — эти сюжеты о рождении жутковатых монстров, боли, людском отчуждении и беспощадности окружающего мира.
Несмотря на посредственный для своего времени уровень съёмок, фильм смотрится чудесно благодаря режиссуре: повествование плавное, динамика выдержана. Игра Юрия Беляева — на высоте. Фильм притягивает внимание до самого конца, а финал приносит с собой мощный эмоциональный всплеск. К финалу же режиссёр выносит на экран множество символов, требующих серьёзной трактовки.-Качество видео: VHSRip
Контейнер: AVI
Видео кодек: DivX
Аудио кодек: MP3
Видео: 645 Мб, 1108 Kbps, 25.0 fps, разрешение 688*560
Аудио: 37,1 Мб, 64,0 Kbps, 44,1 КГц, 1 каналов
Cубтитры: отсутствуют
Общее
Полное имя : E:\Книги\Фильмы\Вельд\veld_[Pirat.ca].torrent.avi
Формат : AVI
Формат/Информация : Audio Video Interleave
Размер файла : 688 Мбайт
Продолжительность : 1 ч. 21 м.
Общий поток : 1181 Кбит/сек
Библиотека кодирования : VirtualDub build 13719/release
Видео
Идентификатор : 0
Формат : MPEG-4 Visual
Параметр BVOP формата : Да
Параметр QPel формата : Нет
Параметр GMC формата : Без точки перехода
Параметр матрицы формата : Default (H.263)
Идентификатор кодека : DIVX
Идентификатор кодека/Информация : Project Mayo
Идентификатор кодека/Подсказка : DivX 4
Продолжительность : 1 ч. 21 м.
Битрейт : 1108 Кбит/сек
Ширина : 688 пикселей
Высота : 560 пикселей
Соотношение сторон : 1,229
Частота кадров : 25,000 кадров/сек
Цветовое пространство : YUV
Субдискретизация насыщенности : 4:2:0
Битовая глубина : 8 бит
Тип развёртки : Прогрессивная
Метод сжатия : С потерями
Бит/(Пиксели*Кадры) : 0.115
Размер потока : 645 Мбайт (94%)
Аудио
Идентификатор : 1
Формат : MPEG Audio
Версия формата : Version 1
Профиль формата : Layer 3
Идентификатор кодека : 55
Идентификатор кодека/Подсказка : MP3
Продолжительность : 1 ч. 21 м.
Вид битрейта : Постоянный
Битрейт : 64,0 Кбит/сек
Каналы : 1 канал
Частота : 44,1 КГц
Метод сжатия : С потерями
Размер потока : 37,1 Мбайт (5%)
Выравнивание : Разделение по промежуткам
Продолжительность промежутка : 40 мс. (1,00 видеокадр)
Время предзагрузки промежутка : 446 мс.
Раздача с 15.00 до 3.30 (время московское)
Download / Скачать

Хотите скачать бесплатно? Зарегистрируйтесь на сайте (ссылка на регистрацию). Pirat.ca - самый быстрый торрент трекер в рунете!

Как скачивать  ·   Что такое торрент  ·   Рейтинг и ограничения



Последний раз редактировалось: Мархуз (2014-03-04 20:13), всего редактировалось 2 раз(а)

Пост 04-Мар-2014 20:17 (спустя 2 часа 46 минут)

Топик был перенесен из форума Наше кино (Трюм) в форум Советское кино
erchine
 

zedward

Юнга

Пост 04-Мар-2014 21:00 (спустя 3 часа)

[Q] 

Спасибо за раздачу!
[Профиль]  [ЛС] 

okorm

889

Пост 04-Апр-2014 11:38 (спустя 30 дней)

[Q] 

Раздающему респект!
[Профиль]  [ЛС] 

kmv01

Гроза морей

Пост 14-Апр-2014 14:32 (спустя 10 дней)

[Q] 

Судя по скринам качество не очень...
[Профиль]  [ЛС] 
Показать сообщения:    
Ответить на тему

Текущее время: Сегодня 08:03

Часовой пояс: GMT + 4



Вы не можете начинать темы
Вы не можете отвечать на сообщения
Вы не можете редактировать свои сообщения
Вы не можете удалять свои сообщения
Вы не можете голосовать в опросах
Вы не можете прикреплять файлы к сообщениям
Вы не можете скачивать файлы

▼ Вниз