ML
     
  Уважаемый Гость!
Вы можете поддержать проект и зарегистрироваться у наших партнеров - онлайн-стратегия MyLands. При регистрации в игре Вы получите код, который сможете активировать после регистрации на pirat.ca и получить 1000 дублонов.

Ваш код:
f612af22ea70acf5cbe90707ac5a076d215f8f7f
 
     

Ко мне, Мухтар! (Семен Туманов) [1964 г., детектив, DVDRip]

Ответить на тему
 
Автор
Сообщение

Пост 09-Мар-2014 17:58

[Q] 

Мархуз

-Ко мне, Мухтар!-- Производство: СССР
Режиссер: Семен Туманов
Жанр: детектив
Год выпуска: 1964 г.
Продолжительность: 01:17:50
В ролях: Юрий Никулин, Владимир Емельянов, Леонид (Алексей) Кмит, Юрий Белов, Алла Ларионова, Федор Никитин, Николай Крючков, Тамара Логинова, Ия Маркс, Лидия Рюмина, Лидия Савченко, Екатерина Савинова, Валентин Брылеев, Сергей Голованов, Владимир Гуляев, Лев Дуров, Вадим Захарченко, Дмитрий Масанов, Юрий Медведев, Леонид Пархоменко, Иван Рыжов, Николай Парфёнов, Тамара Яренко-Описание: Лейтенанта милиции Николая Глазычева вызывают на очередное происшествие - в поезде оставлена крупная овчарка, которая бросается на всех, кто пытается войти в вагон. Глазычеву удается изловить зверя и отправить его в милицейский собачий питомник, но и там пёс продолжает демонстрировать отвратительный нрав - кидается на всех, даже на тех, кто его кормит. Милиция находит хозяйку собаки, которая бросила Мухтара в вагоне, потому что он, видите ли, посмел ее не послушаться и даже - надо же, какая наглость! - на неё зарычать. Начальник питомника предлагает женщине продать собаку, та соглашается и выторговывает за пса 100 рублей (тогда как среднемесячная зарплата в 1964 году составляла 88 рублей). Милиционеры надеются сделать из Мухтара настоящую служебно-розыскную собаку. Но ничего не получается, собака на контакт не идет. Пса признают негодным к службе и собираются выбраковать. Пожалев бедолагу, Глазычев берёт его "на поруки". Так начинаются их взаимное привыкание, а потом - и дружба, и служба...-Качество видео: DVDRip
Контейнер: AVI
Видео кодек: XviD
Аудио кодек: AC3
Видео: 720x304 (2.35:1), 25 fps, XviD 64, 2240 kbps avg, 0.409 bit/pixel
Аудио: 48 kHz, AC3 Dolby Digital, 3/2 (L,C,R,l,r) + LFE ch, 448 kbps
Cубтитры: отсутствуют
Общее
Полное имя : E:\Torrent\Ko mne, Muhtar_[Pirat.ca].torrent.avi
Формат : AVI
Формат/Информация : Audio Video Interleave
Размер файла : 1,47 Гбайт
Продолжительность : 1 ч. 17 м.
Общий поток : 2698 Кбит/сек
Программа кодирования : VirtualDubMod 1.5.10.3 | www.virtualdub-fr.org || (build 2550/release)
Библиотека кодирования : VirtualDubMod build 2550/release
Видео
Идентификатор : 0
Формат : MPEG-4 Visual
Профиль формата : Advanced [email protected]
Параметр BVOP формата : 2
Параметр QPel формата : Нет
Параметр GMC формата : Без точки перехода
Параметр матрицы формата : Выборочная
Идентификатор кодека : XVID
Идентификатор кодека/Подсказка : XviD
Продолжительность : 1 ч. 17 м.
Битрейт : 2240 Кбит/сек
Ширина : 720 пикселей
Высота : 304 пикселя
Соотношение сторон : 2,35:1
Частота кадров : 25,000 кадров/сек
Цветовое пространство : YUV
Субдискретизация насыщенности : 4:2:0
Битовая глубина : 8 бит
Тип развёртки : Прогрессивная
Метод сжатия : С потерями
Бит/(Пиксели*Кадры) : 0.409
Размер потока : 1,22 Гбайт (83%)
Библиотека кодирования : XviD 64
Аудио
Идентификатор : 1
Формат : AC-3
Формат/Информация : Audio Coding 3
Расширение режима : CM (complete main)
Параметр Endianness формата : Big
Идентификатор кодека : 2000
Продолжительность : 1 ч. 17 м.
Вид битрейта : Постоянный
Битрейт : 448 Кбит/сек
Каналы : 6 каналов
Расположение каналов : Front: L C R, Side: L R, LFE
Частота : 48,0 КГц
Битовая глубина : 16 бит
Метод сжатия : С потерями
Размер потока : 249 Мбайт (17%)
Выравнивание : Разделение по промежуткам
Продолжительность промежутка : 40 мс. (1,00 видеокадр)
Время предзагрузки промежутка : 500 мс.
Раздача с 15.00 до 3.30 (время московское)
Download / Скачать

Хотите скачать бесплатно? Зарегистрируйтесь на сайте (ссылка на регистрацию). Pirat.ca - самый быстрый торрент трекер в рунете!

Как скачивать  ·   Что такое торрент  ·   Рейтинг и ограничения

Пост 09-Мар-2014 18:50 (спустя 51 минута)

Топик был перенесен из форума Наше кино (Трюм) в форум Советское кино
aleksey99
 

Pribulec

Корсар

159

Пост 09-Мар-2014 19:23 (спустя 1 час 24 минуты)

[Q] 

Спасибо ВЕЛИКОЕ!!! Лови бочку
[Профиль]  [ЛС] 

avr7342

Лоцман

Пост 21-Мар-2014 18:37 (спустя 11 дней)

[Q] 

Замечательный фильм! Спасибо!
[Профиль]  [ЛС] 

Мархуз ®

4507

Пост 02-Апр-2014 17:22 (спустя 11 дней)

[Q] 

Pribulec, avr7342, это не просто фильм, это- шедевр. aa

_________________

Счастье для всех, даром, и пусть никто не уйдёт обиженный
[Профиль]  [ЛС] 

Rusad

Флибустьер

Пост 27-Июн-2014 13:20 (спустя 2 месяца 24 дня)

[Q] 

Пример того высокого уровня к какому нужно стремиться в создании фильмов,пример того ради чего существует Исскуство Кино,Смотрите и станете лучше!Раздающему желаю не уходить с раздачи Никогда!!!
[Профиль]  [ЛС] 
Показать сообщения:    
Ответить на тему

Текущее время: Сегодня 00:29

Часовой пояс: GMT + 4



Вы не можете начинать темы
Вы не можете отвечать на сообщения
Вы не можете редактировать свои сообщения
Вы не можете удалять свои сообщения
Вы не можете голосовать в опросах
Вы не можете прикреплять файлы к сообщениям
Вы не можете скачивать файлы

▼ Вниз