ML
     
  Уважаемый Гость!
Вы можете поддержать проект и зарегистрироваться у наших партнеров - онлайн-стратегия MyLands. При регистрации в игре Вы получите код, который сможете активировать после регистрации на pirat.ca и получить 1000 дублонов.

Ваш код:
b70663c760e7cd2521b8e123786cdd788200e3bd
 
     

Последний дюйм (Никита Курихин,Теодор Вульфович) [1958 г., драма, DVDRip]

Ответить на тему
 
Автор
Сообщение

Пост 09-Мар-2014 23:18

[Q] 

Мархуз

-Последний дюйм-- Производство: СССР
Режиссер: Никита Курихин,Теодор Вульфович
Жанр: драма
Год выпуска: 1958 г.
Продолжительность: 01:24:45
В ролях: С. Муратов, Н. Крюков, М.Глузский, А. Агаев, М. Джанни-Заде, А. Розанов, И. Дмитриев-Описание: Американскому летчику Бену Энсли 43 года, однако выглядит он значительно старше. У него есть 11-тилетний сын Дэви и ради него он готов на любой заработок, который время от времени ему подкидывает Джиффорд, торгующий сенсационными материалами подводных съемок. На этот раз Джиффорд отказался лететь в Акулью бухту, и Бен взял с собой сына, давно мечтавшего об экспедиции с отцом. Ничего не предвещало беды. Погода была идеальная для работы, но во время схватки с акулой Бен получил тяжелое ранение…-Качество видео: DVDRip
Контейнер: AVI
Видео кодек: DivX
Аудио кодек: AC3
Видео: 704x528 (1.33:1), 25 fps, DivX Codec 5.x or 6.x ~2107 kbps avg
Аудио: 48 kHz, AC3 Dolby Digital, 2/0 (L,R) ch, ~192.00 kbps avg
Cубтитры: отсутствуют
Общее
Полное имя : E:\Torrent\Posledniy_duym_[Pirat.ca].torrent.avi
Формат : AVI
Формат/Информация : Audio Video Interleave
Размер файла : 1,37 Гбайт
Продолжительность : 1 ч. 24 м.
Общий поток : 2309 Кбит/сек
Программа кодирования : VirtualDubModRus 1.5.10.2 (build 2542/release)
Библиотека кодирования : VirtualDubMod build 2542/release
Видео
Идентификатор : 0
Формат : MPEG-4 Visual
Параметр BVOP формата : 1
Параметр QPel формата : Нет
Параметр GMC формата : Без точки перехода
Параметр матрицы формата : Default (H.263)
Режим смешивания : Сжатый битовый поток
Идентификатор кодека : DX50
Идентификатор кодека/Подсказка : DivX 5
Продолжительность : 1 ч. 24 м.
Битрейт : 2107 Кбит/сек
Ширина : 704 пикселя
Высота : 528 пикселей
Соотношение сторон : 4:3
Частота кадров : 25,000 кадров/сек
Цветовое пространство : YUV
Субдискретизация насыщенности : 4:2:0
Битовая глубина : 8 бит
Тип развёртки : Прогрессивная
Метод сжатия : С потерями
Бит/(Пиксели*Кадры) : 0.227
Размер потока : 1,25 Гбайт (91%)
Библиотека кодирования : DivX 6.8.3-6.8.4 (UTC 2008-06-07)
Аудио
Идентификатор : 1
Формат : AC-3
Формат/Информация : Audio Coding 3
Расширение режима : CM (complete main)
Параметр Endianness формата : Big
Идентификатор кодека : 2000
Продолжительность : 1 ч. 24 м.
Вид битрейта : Постоянный
Битрейт : 192 Кбит/сек
Каналы : 2 канала
Расположение каналов : Front: L R
Частота : 48,0 КГц
Битовая глубина : 16 бит
Метод сжатия : С потерями
Размер потока : 116 Мбайт (8%)
Выравнивание : Соединение по промежуткам
Продолжительность промежутка : 40 мс. (1,00 видеокадр)
Время предзагрузки промежутка : 512 мс.
Раздача с 15.00 до 3.30 (время московское)
Download / Скачать

Хотите скачать бесплатно? Зарегистрируйтесь на сайте (ссылка на регистрацию). Pirat.ca - самый быстрый торрент трекер в рунете!

Как скачивать  ·   Что такое торрент  ·   Рейтинг и ограничения

Пост 10-Мар-2014 08:01 (спустя 8 часов)

Топик был перенесен из форума Наше кино (Трюм) в форум Советское кино
aleksey99
 

hevard

Гроза морей

2108

Пост 10-Мар-2014 18:29 (спустя 19 часов)

[Q] 

Помню, смотрел его в детстве... Впечатления на всю жизнь...
И песня из фильма - аж мурашки по коже...
http://www.youtube.com/watch?v=-lfX9Wuam-Q

_________________
-Я старый пират и не знаю слов лицензионного соглашения...
[Профиль]  [ЛС] 

NektoWaso

Флибустьер

Пост 22-Мар-2014 01:17 (спустя 11 дней)

[Q] 

отличное кино для воспитания!!
[Профиль]  [ЛС] 
Показать сообщения:    
Ответить на тему

Текущее время: Сегодня 00:17

Часовой пояс: GMT + 4



Вы не можете начинать темы
Вы не можете отвечать на сообщения
Вы не можете редактировать свои сообщения
Вы не можете удалять свои сообщения
Вы не можете голосовать в опросах
Вы не можете прикреплять файлы к сообщениям
Вы не можете скачивать файлы

▼ Вниз