ML
     
  Уважаемый Гость!
Вы можете поддержать проект и зарегистрироваться у наших партнеров - онлайн-стратегия MyLands. При регистрации в игре Вы получите код, который сможете активировать после регистрации на pirat.ca и получить 1000 дублонов.

Ваш код:
c89b4b6523eaac3173e9a9c062ac1a19db575961
 
     

Третья планета (Александр Рогожкин) [1991 г., фантастика, TVRip]

Ответить на тему
 
Автор
Сообщение

Пост 10-Мар-2014 14:57

[Q] 

Мархуз

-Третья планета-- Производство: СССР
Режиссер: Александр Рогожкин
Жанр: фантастика
Год выпуска: 1991 г.
Продолжительность: 1:33:32
В ролях: Анна Матюхина, Борис Соколов, Светлана Михальченко, Константин Полянский, Гоша Панкратов-Описание: Антон в отчаянии. Его пятнадцатилетнюю дочь Алену, страдающую тяжелым и, видимо, неизлечимым недугом, в очередной раз без улучшений выписывают теперь уже из заграничной клиники. Отец принимает решение - с помошью друга попытать счастья в "зоне" - так называется место, где много лет назад произошла ядерная катастрофа . Теперь там творятся странные и необьяснимые вещи, а главное - живут люди-мутанты. Одни из них - сверхцелители, на них - последняя надежда. Но и за ними уже идет охота....-Качество видео: TVRip
Контейнер: AVI
Видео кодек: DivX
Аудио кодек: MPEG Audio Layer 3
Видео: DivX 5, 512x384, 25.00fps, 0.198 bit/pixel, 973 kbps avg, 0.20 Бит/Пиксели
Аудио: MPEG Audio Layer 3, 44100Hz, mono, 64Kbps
Cубтитры: отсутствуют
Общее
Полное имя : E:\Torrent\Tretya_planeta_[Pirat.ca].torrent.avi
Формат : AVI
Формат/Информация : Audio Video Interleave
Размер файла : 700 Мбайт
Продолжительность : 1 ч. 33 м.
Общий поток : 1046 Кбит/сек
Библиотека кодирования : VirtualDub build 16250/release
Видео
Идентификатор : 0
Формат : MPEG-4 Visual
Параметр BVOP формата : 1
Параметр QPel формата : Нет
Параметр GMC формата : Без точки перехода
Параметр матрицы формата : Default (H.263)
Режим смешивания : Сжатый битовый поток
Идентификатор кодека : DX50
Идентификатор кодека/Подсказка : DivX 5
Продолжительность : 1 ч. 33 м.
Битрейт : 973 Кбит/сек
Ширина : 512 пикселей
Высота : 384 пикселя
Соотношение сторон : 4:3
Частота кадров : 25,000 кадров/сек
Цветовое пространство : YUV
Субдискретизация насыщенности : 4:2:0
Битовая глубина : 8 бит
Тип развёртки : Прогрессивная
Метод сжатия : С потерями
Бит/(Пиксели*Кадры) : 0.198
Размер потока : 651 Мбайт (93%)
Библиотека кодирования : DivX 5.0.5 (UTC 2003-04-24)
Аудио
Идентификатор : 1
Формат : MPEG Audio
Версия формата : Version 1
Профиль формата : Layer 3
Идентификатор кодека : 55
Идентификатор кодека/Подсказка : MP3
Продолжительность : 1 ч. 33 м.
Вид битрейта : Постоянный
Битрейт : 64,0 Кбит/сек
Каналы : 1 канал
Частота : 44,1 КГц
Метод сжатия : С потерями
Задержка видео : 16 мс.
Размер потока : 42,8 Мбайт (6%)
Выравнивание : Разделение по промежуткам
Продолжительность промежутка : 40 мс. (1,00 видеокадр)
Время предзагрузки промежутка : 500 мс.
Раздача с 15.00 до 3.30 (время московское)
Download / Скачать

Хотите скачать бесплатно? Зарегистрируйтесь на сайте (ссылка на регистрацию). Pirat.ca - самый быстрый торрент трекер в рунете!

Как скачивать  ·   Что такое торрент  ·   Рейтинг и ограничения

okorm

889

Пост 31-Мар-2014 15:53 (спустя 21 день)

[Q] 

Раздающему респект! Лови бочку
[Профиль]  [ЛС] 

Мархуз ®

4507

Пост 02-Апр-2014 02:45 (спустя 1 день 10 часов)

[Q] 

okorm, всегда пожалуйста. aa

_________________

Счастье для всех, даром, и пусть никто не уйдёт обиженный
[Профиль]  [ЛС] 
Показать сообщения:    
Ответить на тему

Текущее время: Сегодня 22:30

Часовой пояс: GMT + 4



Вы не можете начинать темы
Вы не можете отвечать на сообщения
Вы не можете редактировать свои сообщения
Вы не можете удалять свои сообщения
Вы не можете голосовать в опросах
Вы не можете прикреплять файлы к сообщениям
Вы не можете скачивать файлы

▼ Вниз