ML
     
  Уважаемый Гость!
Вы можете поддержать проект и зарегистрироваться у наших партнеров - онлайн-стратегия MyLands. При регистрации в игре Вы получите код, который сможете активировать после регистрации на pirat.ca и получить 1000 дублонов.

Ваш код:
73640f24f8a0f579e128ea7346fd2db2b1009143
 
     

Сюрприз (Измаил Бурнацев) [1976 г., комедия, VHSRip]

Ответить на тему
 
Автор
Сообщение

Пост 12-Мар-2014 01:23

[Q] 

Мархуз

-Сюрприз-- Производство: Северо-Осетинская студия телефильмов
Режиссер: Измаил Бурнацев
Жанр: комедия
Год выпуска: 1976 г.
Продолжительность: 00:34:21
В ролях: Исак Гогичев, Маирбек Цихиев, К. Сланов, Н. Саламов, К. Бирагов, А. Бекмурзов, З. Дзобоева, М. Ахриев, В. Макиев, В. Комаева, Т. Басиев-Описание: Жена затеяла ремонт в доме. И пока она ездила за рабочими в город, муж решил не дожидаясь жены, сделать ремонт сам. Собрав своих друзей они начали ремонт с застолья. И закончилось всё это большим сюрпризом для жены….-Качество видео: VHSRip
Контейнер: AVI
Видео кодек: DivX
Аудио кодек: MP3
Видео: DivX Codec 5.x or 6.x, 640x480 (1.33:1), 25 fps, 1148 kbps.
Аудио: MPEG Layer 3, 44.100 kHz, 128.00 kbps, 2 ch.
Cубтитры: отсутствуют
Общее
Полное имя : E:\Torrent\Surpriz_[Pirat.ca].torrent.avi
Формат : AVI
Формат/Информация : Audio Video Interleave
Размер файла : 317 Мбайт
Продолжительность : 34 м.
Общий поток : 1289 Кбит/сек
Программа кодирования : MEncoder SVN-r30881(20100311-gcc4.3.3)
Библиотека кодирования : MPlayer
Видео
Идентификатор : 0
Формат : MPEG-4 Visual
Профиль формата : [email protected]
Параметр BVOP формата : Нет
Параметр QPel формата : Нет
Параметр GMC формата : Без точки перехода
Параметр матрицы формата : Default (H.263)
Идентификатор кодека : DX50
Идентификатор кодека/Подсказка : DivX 5
Продолжительность : 34 м.
Битрейт : 1148 Кбит/сек
Ширина : 640 пикселей
Высота : 480 пикселей
Соотношение сторон : 4:3
Частота кадров : 25,000 кадров/сек
Цветовое пространство : YUV
Субдискретизация насыщенности : 4:2:0
Битовая глубина : 8 бит
Тип развёртки : Прогрессивная
Метод сжатия : С потерями
Бит/(Пиксели*Кадры) : 0.150
Размер потока : 282 Мбайт (89%)
Библиотека кодирования : Lavc52.58.0
Аудио
Идентификатор : 1
Формат : MPEG Audio
Версия формата : Version 1
Профиль формата : Layer 3
Режим : Joint stereo
Расширение режима : MS Stereo
Идентификатор кодека : 55
Идентификатор кодека/Подсказка : MP3
Продолжительность : 34 м.
Вид битрейта : Постоянный
Битрейт : 128 Кбит/сек
Каналы : 2 канала
Частота : 44,1 КГц
Метод сжатия : С потерями
Размер потока : 31,5 Мбайт (10%)
Выравнивание : Соединение по промежуткам
Продолжительность промежутка : 26 мс. (0,65 видеокадр)
Время предзагрузки промежутка : 522 мс.
Библиотека кодирования : LAME3.98
Раздача с 15.00 до 3.30 (время московское)
Download / Скачать

Хотите скачать бесплатно? Зарегистрируйтесь на сайте (ссылка на регистрацию). Pirat.ca - самый быстрый торрент трекер в рунете!

Как скачивать  ·   Что такое торрент  ·   Рейтинг и ограничения

Пост 12-Мар-2014 19:08 (спустя 17 часов)

Топик был перенесен из форума Наше кино (Трюм) в форум Советское кино
erchine
 
Показать сообщения:    
Ответить на тему

Текущее время: Сегодня 22:35

Часовой пояс: GMT + 4



Вы не можете начинать темы
Вы не можете отвечать на сообщения
Вы не можете редактировать свои сообщения
Вы не можете удалять свои сообщения
Вы не можете голосовать в опросах
Вы не можете прикреплять файлы к сообщениям
Вы не можете скачивать файлы

▼ Вниз