ML
     
  Уважаемый Гость!
Вы можете поддержать проект и зарегистрироваться у наших партнеров - онлайн-стратегия MyLands. При регистрации в игре Вы получите код, который сможете активировать после регистрации на pirat.ca и получить 1000 дублонов.

Ваш код:
e6008d9811a0b6a1393c3dc51ecd7bc35637bc21
 
     

Гу-Га (Виллен Новак) [1989 г., военный, DVDRip]

Ответить на тему
 
Автор
Сообщение

Пост 15-Мар-2014 15:33

[Q] 

Мархуз

-Гу-Га-- Производство: СССР, Одесская киностудия
Режиссер: Виллен Новак
Жанр: военный
Год выпуска: 1989 г.
Продолжительность: 02:06:23
В ролях: А.Волков, А.Толубеев, В.Сотникова, А.Горбунов, Н.Холошин, А.Калугин, К.Шафаренко, А.Соловьев, С.Скрипкин, С.Зияутдинов, А.Завьялов, А.Мухамедова, Н.Андросик, А.Голышев, П.Степанов, В.Носик, Т.Хвичиа-Описание: Фильм о судьбе трёх курсантов лётного училища, попавших в штрафной батальон.-Качество видео: DVDRip
Контейнер: AVI
Видео кодек: DivX
Аудио кодек: MP3
Видео: 640x496; 25.000 fps; 1411 kbps; 0.178 bits/pixel
Аудио: MPEG-1 Layer 3; 48000 Hz; 128 kbps; 2ch
Cубтитры: отсутствуют
Общее
Полное имя : E:\Torrent\Gu-Ga_[Pirat.ca].torrent.avi
Формат : AVI
Формат/Информация : Audio Video Interleave
Размер файла : 1,37 Гбайт
Продолжительность : 2 ч. 6 м.
Общий поток : 1549 Кбит/сек
Программа кодирования : VirtualDubMod 1.5.10.2 (build 2540/release)
Библиотека кодирования : VirtualDubMod build 2540/release
Видео
Идентификатор : 0
Формат : MPEG-4 Visual
Параметр BVOP формата : 1
Параметр QPel формата : Нет
Параметр GMC формата : Без точки перехода
Параметр матрицы формата : Default (H.263)
Режим смешивания : Сжатый битовый поток
Идентификатор кодека : DX50
Идентификатор кодека/Подсказка : DivX 5
Продолжительность : 2 ч. 6 м.
Битрейт : 1411 Кбит/сек
Ширина : 640 пикселей
Высота : 496 пикселей
Соотношение сторон : 1,290
Частота кадров : 25,000 кадров/сек
Цветовое пространство : YUV
Субдискретизация насыщенности : 4:2:0
Битовая глубина : 8 бит
Тип развёртки : Прогрессивная
Метод сжатия : С потерями
Бит/(Пиксели*Кадры) : 0.178
Размер потока : 1,25 Гбайт (91%)
Библиотека кодирования : DivX 6.8.5 (UTC 2009-08-20)
Аудио
Идентификатор : 1
Формат : MPEG Audio
Версия формата : Version 1
Профиль формата : Layer 3
Режим : Joint stereo
Расширение режима : MS Stereo
Идентификатор кодека : 55
Идентификатор кодека/Подсказка : MP3
Продолжительность : 2 ч. 6 м.
Вид битрейта : Постоянный
Битрейт : 128 Кбит/сек
Каналы : 2 канала
Частота : 48,0 КГц
Метод сжатия : С потерями
Размер потока : 116 Мбайт (8%)
Выравнивание : Соединение по промежуткам
Продолжительность промежутка : 40 мс. (1,00 видеокадр)
Время предзагрузки промежутка : 504 мс.
Раздача с 15.00 до 3.30 (время московское)
Download / Скачать

Хотите скачать бесплатно? Зарегистрируйтесь на сайте (ссылка на регистрацию). Pirat.ca - самый быстрый торрент трекер в рунете!

Как скачивать  ·   Что такое торрент  ·   Рейтинг и ограничения

Пост 15-Мар-2014 15:58 (спустя 25 минут)

Топик был перенесен из форума Наше кино (Трюм) в форум Советское кино
erchine
 

gonzo-fox

Морской Волк

Пост 15-Мар-2014 18:02 (спустя 2 часа 28 минут)

[Q] 

Гу-Га (Виллен Новак) - СПАСИБО !!! ПРИКОЛЬНО !!!

_________________
et teipsum salvum facies, ex inferno ...
Infernus - tantum verbo, multo magis veritas
Liberato tute me est

[Профиль]  [ЛС] 

dma2003

Лоцман

Пост 15-Мар-2014 22:03 (спустя 4 часа)

[Q] 

Спасибо! Поглядим!
[Профиль]  [ЛС] 

Мархуз ®

4505

Пост 02-Апр-2014 17:14 (спустя 17 дней)

[Q] 

gonzo-fox, dma2003, пожалуйста, рад что понравилось. aa

_________________

Счастье для всех, даром, и пусть никто не уйдёт обиженный
[Профиль]  [ЛС] 
Показать сообщения:    
Ответить на тему

Текущее время: Сегодня 02:02

Часовой пояс: GMT + 4



Вы не можете начинать темы
Вы не можете отвечать на сообщения
Вы не можете редактировать свои сообщения
Вы не можете удалять свои сообщения
Вы не можете голосовать в опросах
Вы не можете прикреплять файлы к сообщениям
Вы не можете скачивать файлы

▼ Вниз