ML
     
  Уважаемый Гость!
Вы можете поддержать проект и зарегистрироваться у наших партнеров - онлайн-стратегия MyLands. При регистрации в игре Вы получите код, который сможете активировать после регистрации на pirat.ca и получить 1000 дублонов.

Ваш код:
4fbd9898b6f10799a3e8edf60f31febd2bc15453
 
     

Аллегро с огнём (Владимир Стрелков) [1979 г., военный, VHSRip]

Ответить на тему
 
Автор
Сообщение

Пост 16-Мар-2014 01:04

[Q] 

Мархуз

-Аллегро с огнём-- Производство: СССР, Одесская киностудия
Режиссер: Владимир Стрелков
Жанр: военный
Год выпуска: 1979 г.
Продолжительность: 01:25:47
В ролях: Владимир Заманский, Виктор Михайлов, Валентин Голубенко, Жорж Новицкий, Сергей Лосев, Сергей Полежаев, Наум Кавуновский, Людмила Ярошенко, Юрий Богданов, Фёдор Валиков, Василий Векшин, Виктор Павловский, Анатолий Быстров, Евгений Казаков, Аркадий Свидерский-Описание: В июне 1941 года фашисты попытались заблокировать Черноморский флот, забросав фарватер новыми сверхсекретными магнитно-акустическими минами. Для обезвреживания этого грозного оружия была создана особая группа профессионалов-минеров...-Качество видео: VHSRip
Контейнер: AVI
Видео кодек: DivX
Аудио кодек: MP3
Видео: 640x288, DivX 5, 25 fps, 1111 kbps, 0.241 bit/pixel
Аудио: MP3, 48000 Hz, 64 kb/s, 1 ch
Cубтитры: отсутствуют
Общее
Полное имя : E:\Torrent\Allegro_c_ognem_[Pirat.ca].torrent.avi
Формат : AVI
Формат/Информация : Audio Video Interleave
Размер файла : 693 Мбайт
Продолжительность : 1 ч. 21 м.
Общий поток : 1185 Кбит/сек
Библиотека кодирования : VirtualDub build 14303/release
Видео
Идентификатор : 0
Формат : MPEG-4 Visual
Параметр BVOP формата : 1
Параметр QPel формата : Нет
Параметр GMC формата : Без точки перехода
Параметр матрицы формата : Default (H.263)
Режим смешивания : Сжатый битовый поток
Идентификатор кодека : DX50
Идентификатор кодека/Подсказка : DivX 5
Продолжительность : 1 ч. 21 м.
Битрейт : 1111 Кбит/сек
Ширина : 640 пикселей
Высота : 288 пикселей
Соотношение сторон : 2,222
Частота кадров : 25,000 кадров/сек
Цветовое пространство : YUV
Субдискретизация насыщенности : 4:2:0
Битовая глубина : 8 бит
Тип развёртки : Прогрессивная
Метод сжатия : С потерями
Бит/(Пиксели*Кадры) : 0.241
Размер потока : 650 Мбайт (94%)
Библиотека кодирования : DivX 5.2.1 (DrDivX 106) (UTC 2004-09-08)
Аудио
Идентификатор : 1
Формат : MPEG Audio
Версия формата : Version 1
Профиль формата : Layer 3
Идентификатор кодека : 55
Идентификатор кодека/Подсказка : MP3
Продолжительность : 1 ч. 21 м.
Вид битрейта : Постоянный
Битрейт : 64,0 Кбит/сек
Каналы : 1 канал
Частота : 48,0 КГц
Метод сжатия : С потерями
Размер потока : 37,5 Мбайт (5%)
Выравнивание : Разделение по промежуткам
Продолжительность промежутка : 40 мс. (1,00 видеокадр)
Время предзагрузки промежутка : 423 мс.
Раздача с 15.00 до 3.30 (время московское)
Download / Скачать

Хотите скачать бесплатно? Зарегистрируйтесь на сайте (ссылка на регистрацию). Pirat.ca - самый быстрый торрент трекер в рунете!

Как скачивать  ·   Что такое торрент  ·   Рейтинг и ограничения

Пост 16-Мар-2014 15:39 (спустя 14 часов)

Топик был перенесен из форума Наше кино (Трюм) в форум Советское кино
erchine
 
Показать сообщения:    
Ответить на тему

Текущее время: Сегодня 20:00

Часовой пояс: GMT + 4



Вы не можете начинать темы
Вы не можете отвечать на сообщения
Вы не можете редактировать свои сообщения
Вы не можете удалять свои сообщения
Вы не можете голосовать в опросах
Вы не можете прикреплять файлы к сообщениям
Вы не можете скачивать файлы

▼ Вниз