ML
     
  Уважаемый Гость!
Вы можете поддержать проект и зарегистрироваться у наших партнеров - онлайн-стратегия MyLands. При регистрации в игре Вы получите код, который сможете активировать после регистрации на pirat.ca и получить 1000 дублонов.

Ваш код:
5f4e94775bc0501caff7b254e79328d304c817d9
 
     

Альпийская баллада (Борис Степанов) [1965 г., военный, TVRip]

Ответить на тему
 
Автор
Сообщение

Пост 16-Мар-2014 16:25

[Q] 

Мархуз

-Альпийская баллада-- Производство: СССР, Беларусьфильм
Режиссер: Борис Степанов
Жанр: военный
Год выпуска: 1965 г.
Продолжительность: 01:25:55
В ролях: Любовь Румянцева, Станислав Любшин, Алексей Котрелёв, Ю. Юрченко, Галина Макарова, В. Былинский, Геннадий Василевский, Валентина Василенко , Александра Зимина, Вячеслав Кубарев, А. Нестеров, Борис Плосков, Владимир Белокуров, Антонина Бендова-Описание: Великая Отечественная война. Завод в Альпах, где работают военнопленные, подвергается ночным бомбардировкам. Воспользовавшись этим обстоятельством, пятеро заключенных осуществляют побег. Среди них - русский солдат. Только ему и удаётся уйти в горы…-Качество видео: TVRip
Контейнер: AVI
Видео кодек: XviD
Аудио кодек: MP3
Видео: 640x336, 1075 kbps, 25 fps, 0.200 bit/pixel
Аудио: 48 kHz, 128.00 kbps avg, 2 ch
Cубтитры: отсутствуют
Приз за лучший фильм на МКФ в Дели, Индия, 1968 г.
Общее
Полное имя : E:\Torrent\Al`piyskaja_ballada_[Pirat.ca].torrent.avi
Формат : AVI
Формат/Информация : Audio Video Interleave
Размер файла : 745 Мбайт
Продолжительность : 1 ч. 25 м.
Общий поток : 1212 Кбит/сек
Программа кодирования : VirtualDubModRus 1.5.10.2 (build 2542/release)
Библиотека кодирования : VirtualDubMod build 2542/release
Видео
Идентификатор : 0
Формат : MPEG-4 Visual
Профиль формата : Advanced [email protected]
Параметр BVOP формата : 2
Параметр QPel формата : Нет
Параметр GMC формата : Без точки перехода
Параметр матрицы формата : Default (MPEG)
Режим смешивания : Сжатый битовый поток
Идентификатор кодека : XVID
Идентификатор кодека/Подсказка : XviD
Продолжительность : 1 ч. 25 м.
Битрейт : 1075 Кбит/сек
Ширина : 640 пикселей
Высота : 336 пикселей
Соотношение сторон : 1,905
Частота кадров : 25,000 кадров/сек
Цветовое пространство : YUV
Субдискретизация насыщенности : 4:2:0
Битовая глубина : 8 бит
Тип развёртки : Прогрессивная
Метод сжатия : С потерями
Бит/(Пиксели*Кадры) : 0.200
Размер потока : 661 Мбайт (89%)
Библиотека кодирования : XviD 64
Аудио
Идентификатор : 1
Формат : MPEG Audio
Версия формата : Version 1
Профиль формата : Layer 3
Режим : Joint stereo
Расширение режима : MS Stereo
Идентификатор кодека : 55
Идентификатор кодека/Подсказка : MP3
Продолжительность : 1 ч. 25 м.
Вид битрейта : Постоянный
Битрейт : 128 Кбит/сек
Каналы : 2 канала
Частота : 48,0 КГц
Метод сжатия : С потерями
Размер потока : 78,7 Мбайт (11%)
Выравнивание : Соединение по промежуткам
Продолжительность промежутка : 40 мс. (1,00 видеокадр)
Время предзагрузки промежутка : 504 мс.
Библиотека кодирования : LAME3.97
Настройки программы : -m j -V 4 -q 0 -b 128
Раздача с 15.00 до 3.30 (время московское)
Download / Скачать

Хотите скачать бесплатно? Зарегистрируйтесь на сайте (ссылка на регистрацию). Pirat.ca - самый быстрый торрент трекер в рунете!

Как скачивать  ·   Что такое торрент  ·   Рейтинг и ограничения

Пост 16-Мар-2014 18:53 (спустя 2 часа 28 минут)

Топик был перенесен из форума Наше кино (Трюм) в форум Советское кино
kugesan
 

okorm

889

Пост 04-Апр-2014 11:56 (спустя 18 дней)

[Q] 

Лови бочку Автору респект!!!
[Профиль]  [ЛС] 
Показать сообщения:    
Ответить на тему

Текущее время: Сегодня 15:37

Часовой пояс: GMT + 4



Вы не можете начинать темы
Вы не можете отвечать на сообщения
Вы не можете редактировать свои сообщения
Вы не можете удалять свои сообщения
Вы не можете голосовать в опросах
Вы не можете прикреплять файлы к сообщениям
Вы не можете скачивать файлы

▼ Вниз