ML
     
  Уважаемый Гость!
Вы можете поддержать проект и зарегистрироваться у наших партнеров - онлайн-стратегия MyLands. При регистрации в игре Вы получите код, который сможете активировать после регистрации на pirat.ca и получить 1000 дублонов.

Ваш код:
e6008d9811a0b6a1393c3dc51ecd7bc35637bc21
 
     

В двух шагах от "Рая" (Тимур Золоев) [1984 г., военный, TVRip]

Ответить на тему
 
Автор
Сообщение

Пост 16-Мар-2014 19:50

[Q] 

Мархуз

-В двух шагах от "Рая"-- Производство: СССР, Одесская киностудия
Режиссер: Тимур Золоев
Жанр: военный
Год выпуска: 1984 г.
Продолжительность: 01:21:35
В ролях: Мартиньш Вилсонс, Ремигиюс Сабулис, Алексей Булдаков, Ирина Мельник, Роландс Загорскис, Мухтарбек Кантемиров, Любомирас Лауцявичюс, Виктор Евграфов, Леонардас Зельчюс, Валентинас Масальскис, Александр Мовчан, Николай Олейник-Описание: Советским разведчикам поручено обнаружить и уничтожить важный стратегический объект врага - склад урановой руды в Карпатах, носящий кодовое название "Рай". Объект тщательно охраняют немецкие войска специального-Качество видео: TVRip
Контейнер: AVI
Видео кодек: XviD
Аудио кодек: MP3
Видео: 640x480, 25 fps, 1138 kbps, 0.148 bit/pixel
Аудио: 48 kHz, 128.00 kbps, 2 ch
Cубтитры: отсутствуют
Общее
Полное имя : E:\Torrent\V_dvuh_schsgaot_Raja_[Pirat.ca].torrent.avi
Формат : AVI
Формат/Информация : Audio Video Interleave
Размер файла : 744 Мбайт
Продолжительность : 1 ч. 21 м.
Общий поток : 1275 Кбит/сек
Программа кодирования : VirtualDubModRus 1.5.10.2 (build 2542/release)
Библиотека кодирования : VirtualDubMod build 2542/release
Видео
Идентификатор : 0
Формат : MPEG-4 Visual
Профиль формата : Advanced [email protected]
Параметр BVOP формата : 2
Параметр QPel формата : Нет
Параметр GMC формата : Без точки перехода
Параметр матрицы формата : Default (MPEG)
Режим смешивания : Сжатый битовый поток
Идентификатор кодека : XVID
Идентификатор кодека/Подсказка : XviD
Продолжительность : 1 ч. 21 м.
Битрейт : 1138 Кбит/сек
Ширина : 640 пикселей
Высота : 480 пикселей
Соотношение сторон : 4:3
Частота кадров : 25,000 кадров/сек
Цветовое пространство : YUV
Субдискретизация насыщенности : 4:2:0
Битовая глубина : 8 бит
Тип развёртки : Прогрессивная
Метод сжатия : С потерями
Бит/(Пиксели*Кадры) : 0.148
Размер потока : 664 Мбайт (89%)
Библиотека кодирования : XviD 64
Аудио
Идентификатор : 1
Формат : MPEG Audio
Версия формата : Version 1
Профиль формата : Layer 3
Идентификатор кодека : 55
Идентификатор кодека/Подсказка : MP3
Продолжительность : 1 ч. 21 м.
Вид битрейта : Постоянный
Битрейт : 128 Кбит/сек
Каналы : 2 канала
Частота : 48,0 КГц
Метод сжатия : С потерями
Размер потока : 74,7 Мбайт (10%)
Выравнивание : Соединение по промежуткам
Продолжительность промежутка : 40 мс. (1,00 видеокадр)
Время предзагрузки промежутка : 504 мс.
Библиотека кодирования : LAME3.97
Настройки программы : -m s -V 4 -q 1 -b 128
Раздача с 15.00 до 3.30 (время московское)
Download / Скачать

Хотите скачать бесплатно? Зарегистрируйтесь на сайте (ссылка на регистрацию). Pirat.ca - самый быстрый торрент трекер в рунете!

Как скачивать  ·   Что такое торрент  ·   Рейтинг и ограничения

Пост 16-Мар-2014 22:21 (спустя 2 часа 30 минут)

Топик был перенесен из форума Наше кино (Трюм) в форум Советское кино
kugesan
 
Показать сообщения:    
Ответить на тему

Текущее время: Сегодня 02:03

Часовой пояс: GMT + 4



Вы не можете начинать темы
Вы не можете отвечать на сообщения
Вы не можете редактировать свои сообщения
Вы не можете удалять свои сообщения
Вы не можете голосовать в опросах
Вы не можете прикреплять файлы к сообщениям
Вы не можете скачивать файлы

▼ Вниз