ML
     
  Уважаемый Гость!
Вы можете поддержать проект и зарегистрироваться у наших партнеров - онлайн-стратегия MyLands. При регистрации в игре Вы получите код, который сможете активировать после регистрации на pirat.ca и получить 1000 дублонов.

Ваш код:
500cb7bd8d2cec9a8aba647a87ce41c4b76f06bd
 
     

Идеальное преступление (Игорь Вознесенский.) [1989 г., детектив, фантастика, TVRip]

Ответить на тему
 
Автор
Сообщение

Пост 17-Мар-2014 23:34

[Q] 

Мархуз

-Идеальное преступление-- Производство: СССР, Киностудия им. Горького
Режиссер: Игорь Вознесенский.
Жанр: детектив, фантастика
Год выпуска: 1989 г.
Продолжительность: 01:30:45
В ролях: Александр Вокач, Елена Проклова, Владимир Стеклов, Ремигиюс Сабулис, Георгий Дрозд, Ромуальд Анцанс, Георгий Пицхелаури, Александр Новиков (II), Витаутас Паукште, Улдис Вейспал, Елена Валаева, Андрей Юренев, Алла Плоткина.-Описание: Фабриканта Ланса Гереро на основании неопровержимых доказательств обвиняют в убийстве девушки. Однако молодой адвокат еще надеется разоблачить преступников, занимающихся фабрикацией ложных улик, избавляя своих заказчиков от конкурентов...-Качество видео: TVRip
Контейнер: AVI
Видео кодек: XviD
Аудио кодек: MP3
Видео: 512x384, 1165 kbps, 25 fps, 0.237 bit/pixel
Аудио: 44.100 kHz, 128.00 kbps, 2 ch
Cубтитры: отсутствуют
Общее
Полное имя : E:\Torrent\Idealnoe prestuplenie_[Pirat.ca].torrent.avi
Формат : AVI
Формат/Информация : Audio Video Interleave
Размер файла : 846 Мбайт
Продолжительность : 1 ч. 30 м.
Общий поток : 1303 Кбит/сек
Программа кодирования : MEncoder dev-CVS-051014-22:10-3.4.4
Библиотека кодирования : VirtualDub-MPEG2 build 24600/release
Видео
Идентификатор : 0
Формат : MPEG-4 Visual
Профиль формата : [email protected]
Параметр BVOP формата : Нет
Параметр QPel формата : Нет
Параметр GMC формата : Без точки перехода
Параметр матрицы формата : Default (H.263)
Идентификатор кодека : XVID
Идентификатор кодека/Подсказка : XviD
Продолжительность : 1 ч. 30 м.
Битрейт : 1165 Кбит/сек
Ширина : 512 пикселей
Высота : 384 пикселя
Соотношение сторон : 4:3
Частота кадров : 25,000 кадров/сек
Цветовое пространство : YUV
Субдискретизация насыщенности : 4:2:0
Битовая глубина : 8 бит
Тип развёртки : Прогрессивная
Метод сжатия : С потерями
Бит/(Пиксели*Кадры) : 0.237
Размер потока : 756 Мбайт (89%)
Библиотека кодирования : Lavc50.0.0
Аудио
Идентификатор : 1
Формат : MPEG Audio
Версия формата : Version 1
Профиль формата : Layer 3
Режим : Dual mono
Идентификатор кодека : 55
Идентификатор кодека/Подсказка : MP3
Продолжительность : 1 ч. 30 м.
Вид битрейта : Постоянный
Битрейт : 128 Кбит/сек
Каналы : 2 канала
Частота : 44,1 КГц
Метод сжатия : С потерями
Размер потока : 83,1 Мбайт (10%)
Выравнивание : Разделение по промежуткам
Продолжительность промежутка : 40 мс. (1,00 видеокадр)
Время предзагрузки промежутка : 500 мс.
Раздача с 15.00 до 3.30 (время московское)
Download / Скачать

Хотите скачать бесплатно? Зарегистрируйтесь на сайте (ссылка на регистрацию). Pirat.ca - самый быстрый торрент трекер в рунете!

Как скачивать  ·   Что такое торрент  ·   Рейтинг и ограничения

Пост 18-Мар-2014 17:55 (спустя 18 часов)

Топик был перенесен из форума Наше кино (Трюм) в форум Советское кино
kugesan
 
Показать сообщения:    
Ответить на тему

Текущее время: Сегодня 01:50

Часовой пояс: GMT + 4



Вы не можете начинать темы
Вы не можете отвечать на сообщения
Вы не можете редактировать свои сообщения
Вы не можете удалять свои сообщения
Вы не можете голосовать в опросах
Вы не можете прикреплять файлы к сообщениям
Вы не можете скачивать файлы

▼ Вниз