ML
     
  Уважаемый Гость!
Вы можете поддержать проект и зарегистрироваться у наших партнеров - онлайн-стратегия MyLands. При регистрации в игре Вы получите код, который сможете активировать после регистрации на pirat.ca и получить 1000 дублонов.

Ваш код:
11f49771fdf057c9d51610e4a0925c3b46ddb655
 
     

Прости нас, мачеха Россия (2 серии) (Юрий Елхов) [1990 г., драма, SATRip]

Ответить на тему
 
Автор
Сообщение

Пост 19-Мар-2014 00:10

[Q] 

Мархуз

-Прости нас, мачеха Россия (2 серии)-- Производство: СССР, Беларусьфильм студия «Кадр»
Режиссер: Юрий Елхов
Жанр: драма
Год выпуска: 1990 г.
Продолжительность: 02:08:28
В ролях: Людмила Гурченко, Пётр Вельяминов, Сергей Вельяминов, Юозас Будрайтис, Мартинас Будрайтис, Вячеслав Солодилов, Леонид Кулагин, Николай Крюков (II), Алексей Зайцев, Григорий Гладий, Владимир Золотухин, Ростислав Янковский, Карен Джангирян-Описание: Заключенный Русаков несправедливо обвинен в измене Родине. Во время хрущевской оттепели в лагерь присылают нового следователя для повторного расследования. Ей удается доказать невиновность осужденного, но в это время к власти приходит Брежнев и доследование по делу Русакова прекращается. Следователь, чувствуя свою беспомощность, кончает жизнь самоубийством...-Качество видео: SATRip
Контейнер: AVI
Видео кодек: XviD
Аудио кодек: MP3
1серия Видео: 704x528; 805 kbps; 25.00fps; 0.087 bit/pixel
1серия Видео: 704x528; 679 kbps; 25.00fps; 0.073 bit/pixel
Аудио: 128kbps; 48000Hz; 2 ch
Cубтитры: отсутствуют
Серия 1
Общее
Полное имя : E:\Torrent\Prosti_nas_macheha_Rossiya_[Pirat.ca].torrent\01 серия.avi
Формат : AVI
Формат/Информация : Audio Video Interleave
Размер файла : 437 Мбайт
Продолжительность : 1 ч. 4 м.
Общий поток : 943 Кбит/сек
Библиотека кодирования : VirtualDub build 35390/release
Видео
Идентификатор : 0
Формат : MPEG-4 Visual
Профиль формата : Advanced [email protected]
Параметр BVOP формата : 1
Параметр QPel формата : Нет
Параметр GMC формата : Без точки перехода
Параметр матрицы формата : Default (MPEG)
Режим смешивания : Сжатый битовый поток
Идентификатор кодека : XVID
Идентификатор кодека/Подсказка : XviD
Продолжительность : 1 ч. 4 м.
Битрейт : 805 Кбит/сек
Ширина : 704 пикселя
Высота : 528 пикселей
Соотношение сторон : 4:3
Частота кадров : 25,000 кадров/сек
Цветовое пространство : YUV
Субдискретизация насыщенности : 4:2:0
Битовая глубина : 8 бит
Тип развёртки : Прогрессивная
Метод сжатия : С потерями
Бит/(Пиксели*Кадры) : 0.087
Размер потока : 373 Мбайт (85%)
Библиотека кодирования : XviD 1.2.1 (UTC 2008-12-04)
Аудио
Идентификатор : 1
Формат : MPEG Audio
Версия формата : Version 1
Профиль формата : Layer 3
Режим : Joint stereo
Расширение режима : MS Stereo
Идентификатор кодека : 55
Идентификатор кодека/Подсказка : MP3
Продолжительность : 1 ч. 4 м.
Вид битрейта : Постоянный
Битрейт : 128 Кбит/сек
Каналы : 2 канала
Частота : 48,0 КГц
Метод сжатия : С потерями
Размер потока : 59,3 Мбайт (14%)
Выравнивание : Разделение по промежуткам
Продолжительность промежутка : 40 мс. (1,00 видеокадр)
Время предзагрузки промежутка : 500 мс.
Серия 2
Общее
Полное имя : E:\Torrent\Prosti_nas_macheha_Rossiya_[Pirat.ca].torrent\02 серия.avi
Формат : AVI
Формат/Информация : Audio Video Interleave
Размер файла : 380 Мбайт
Продолжительность : 1 ч. 5 м.
Общий поток : 816 Кбит/сек
Библиотека кодирования : VirtualDub build 35390/release
Видео
Идентификатор : 0
Формат : MPEG-4 Visual
Профиль формата : Advanced [email protected]
Параметр BVOP формата : 1
Параметр QPel формата : Нет
Параметр GMC формата : Без точки перехода
Параметр матрицы формата : Default (MPEG)
Режим смешивания : Сжатый битовый поток
Идентификатор кодека : XVID
Идентификатор кодека/Подсказка : XviD
Продолжительность : 1 ч. 5 м.
Битрейт : 679 Кбит/сек
Ширина : 704 пикселя
Высота : 528 пикселей
Соотношение сторон : 4:3
Частота кадров : 25,000 кадров/сек
Цветовое пространство : YUV
Субдискретизация насыщенности : 4:2:0
Битовая глубина : 8 бит
Тип развёртки : Прогрессивная
Метод сжатия : С потерями
Бит/(Пиксели*Кадры) : 0.073
Размер потока : 316 Мбайт (83%)
Библиотека кодирования : XviD 1.2.1 (UTC 2008-12-04)
Аудио
Идентификатор : 1
Формат : MPEG Audio
Версия формата : Version 1
Профиль формата : Layer 3
Режим : Joint stereo
Расширение режима : MS Stereo
Идентификатор кодека : 55
Идентификатор кодека/Подсказка : MP3
Продолжительность : 1 ч. 5 м.
Вид битрейта : Постоянный
Битрейт : 128 Кбит/сек
Каналы : 2 канала
Частота : 48,0 КГц
Метод сжатия : С потерями
Размер потока : 59,6 Мбайт (16%)
Выравнивание : Разделение по промежуткам
Продолжительность промежутка : 40 мс. (1,00 видеокадр)
Время предзагрузки промежутка : 500 мс.
Раздача с 15.00 до 3.30 (время московское)
Download / Скачать

Хотите скачать бесплатно? Зарегистрируйтесь на сайте (ссылка на регистрацию). Pirat.ca - самый быстрый торрент трекер в рунете!

Как скачивать  ·   Что такое торрент  ·   Рейтинг и ограничения

Пост 19-Мар-2014 11:49 (спустя 11 часов)

Топик был перенесен из форума Наше кино (Трюм) в форум Советское кино
kugesan
 
Показать сообщения:    
Ответить на тему

Текущее время: Сегодня 03:14

Часовой пояс: GMT + 4



Вы не можете начинать темы
Вы не можете отвечать на сообщения
Вы не можете редактировать свои сообщения
Вы не можете удалять свои сообщения
Вы не можете голосовать в опросах
Вы не можете прикреплять файлы к сообщениям
Вы не можете скачивать файлы

▼ Вниз