ML
     
  Уважаемый Гость!
Вы можете поддержать проект и зарегистрироваться у наших партнеров - онлайн-стратегия MyLands. При регистрации в игре Вы получите код, который сможете активировать после регистрации на pirat.ca и получить 1000 дублонов.

Ваш код:
ba41f7961e0b4717aed6a401d955262223b8f6c4
 
     

Назначаешься внучкой (2 серии) (Ярополк Лапшин) [1975 г., военный, DVDRip]

Ответить на тему
 
Автор
Сообщение

Пост 20-Мар-2014 18:49

[Q] 

Мархуз

-Назначаешься внучкой (2 серии)-- Производство: СССР, Свердловская киностудия
Режиссер: Ярополк Лапшин
Жанр: военный
Год выпуска: 1975 г.
Продолжительность: 02:13:09
В ролях: Борис Андреев, Ирина Гришина, Николай Прокопович, Олег Корчиков, Майя Булгакова, Даниил Нетребин, Гиви Тохадзе-Описание: Лето 1942 года, идёт Великая Отечественная. Дуся Мельникова осаждает военкома и тот, наконец, соглашается взять её на обучение в разведшколу. В разведшколе Дуся проходит курс обучения радистки, получает кличку «Чижик». Начальник разведшколы приглашает Дусю и спрашивает её согласна ли она на заброску связной в тыл врага к «деду», где предыдущего связного схватили и повесили гестаповцы. Евдокия отвечает согласием на любое задание.-Качество видео: DVDRip
Контейнер: AVI
Видео кодек: XviD
Аудио кодек: MP3
1серия Видео: 640x400; 1332 kbps; 25.00fps; 0.208 bit/pixel
2серия Видео: 640x400; 1493 kbps; 25.00fps; 0.233 bit/pixel
Аудио: 128Kbps; 48000Hz; 2 ch
Cубтитры: отсутствуют
1 серия
Общее
Полное имя : E:\Torrent\Naznachaeshsya_vnuchkoi_[Pirat.ca].torrent\01 серия.avi
Формат : AVI
Формат/Информация : Audio Video Interleave
Размер файла : 654 Мбайт
Продолжительность : 1 ч. 2 м.
Общий поток : 1470 Кбит/сек
Программа кодирования : VirtualDubMod 1.5.10.2 (build 2540/release)
Библиотека кодирования : VirtualDub build 35390/release
Видео
Идентификатор : 0
Формат : MPEG-4 Visual
Профиль формата : Advanced [email protected]
Параметр BVOP формата : 1
Параметр QPel формата : Нет
Параметр GMC формата : Без точки перехода
Параметр матрицы формата : Выборочная
Идентификатор кодека : XVID
Идентификатор кодека/Подсказка : XviD
Продолжительность : 1 ч. 2 м.
Битрейт : 1332 Кбит/сек
Ширина : 640 пикселей
Высота : 400 пикселей
Соотношение сторон : 16:10
Частота кадров : 25,000 кадров/сек
Цветовое пространство : YUV
Субдискретизация насыщенности : 4:2:0
Битовая глубина : 8 бит
Тип развёртки : Прогрессивная
Метод сжатия : С потерями
Бит/(Пиксели*Кадры) : 0.208
Размер потока : 592 Мбайт (91%)
Библиотека кодирования : XviD 1.2.1 (UTC 2008-12-04)
Аудио
Идентификатор : 1
Формат : MPEG Audio
Версия формата : Version 1
Профиль формата : Layer 3
Идентификатор кодека : 55
Идентификатор кодека/Подсказка : MP3
Продолжительность : 1 ч. 2 м.
Вид битрейта : Постоянный
Битрейт : 128 Кбит/сек
Каналы : 2 канала
Частота : 48,0 КГц
Метод сжатия : С потерями
Размер потока : 56,9 Мбайт (9%)
Выравнивание : Соединение по промежуткам
Продолжительность промежутка : 40 мс. (1,00 видеокадр)
Время предзагрузки промежутка : 504 мс.
Библиотека кодирования : LAME3.98r
Настройки программы : -m s -V 4 -q 0 -lowpass 17 -b 128
2 серия
Общее
Полное имя : E:\Torrent\Naznachaeshsya_vnuchkoi_[Pirat.ca].torrent\02 серия.avi
Формат : AVI
Формат/Информация : Audio Video Interleave
Размер файла : 828 Мбайт
Продолжительность : 1 ч. 10 м.
Общий поток : 1631 Кбит/сек
Программа кодирования : VirtualDubMod 1.5.10.2 (build 2540/release)
Библиотека кодирования : VirtualDub build 35390/release
Видео
Идентификатор : 0
Формат : MPEG-4 Visual
Профиль формата : Advanced [email protected]
Параметр BVOP формата : 1
Параметр QPel формата : Нет
Параметр GMC формата : Без точки перехода
Параметр матрицы формата : Выборочная
Идентификатор кодека : XVID
Идентификатор кодека/Подсказка : XviD
Продолжительность : 1 ч. 10 м.
Битрейт : 1493 Кбит/сек
Ширина : 640 пикселей
Высота : 400 пикселей
Соотношение сторон : 16:10
Частота кадров : 25,000 кадров/сек
Цветовое пространство : YUV
Субдискретизация насыщенности : 4:2:0
Битовая глубина : 8 бит
Тип развёртки : Прогрессивная
Метод сжатия : С потерями
Бит/(Пиксели*Кадры) : 0.233
Размер потока : 758 Мбайт (92%)
Библиотека кодирования : XviD 1.2.1 (UTC 2008-12-04)
Аудио
Идентификатор : 1
Формат : MPEG Audio
Версия формата : Version 1
Профиль формата : Layer 3
Идентификатор кодека : 55
Идентификатор кодека/Подсказка : MP3
Продолжительность : 1 ч. 10 м.
Вид битрейта : Постоянный
Битрейт : 128 Кбит/сек
Каналы : 2 канала
Частота : 48,0 КГц
Метод сжатия : С потерями
Размер потока : 65,0 Мбайт (8%)
Выравнивание : Соединение по промежуткам
Продолжительность промежутка : 40 мс. (1,00 видеокадр)
Время предзагрузки промежутка : 504 мс.
Раздача с 13.00 до 1.30
Download / Скачать

Хотите скачать бесплатно? Зарегистрируйтесь на сайте (ссылка на регистрацию). Pirat.ca - самый быстрый торрент трекер в рунете!

Как скачивать  ·   Что такое торрент  ·   Рейтинг и ограничения

Пост 20-Мар-2014 19:49 (спустя 59 минут)

Топик был перенесен из форума Наше кино (Трюм) в форум Советское кино
erchine
 

vovan200976

Флибустьер

Пост 21-Мар-2014 09:16 (спустя 14 часов)

[Q] 

Хороший фильм !!! могли снимать!!! Лови бочку
[Профиль]  [ЛС] 
Показать сообщения:    
Ответить на тему

Текущее время: Сегодня 14:47

Часовой пояс: GMT + 4



Вы не можете начинать темы
Вы не можете отвечать на сообщения
Вы не можете редактировать свои сообщения
Вы не можете удалять свои сообщения
Вы не можете голосовать в опросах
Вы не можете прикреплять файлы к сообщениям
Вы не можете скачивать файлы

▼ Вниз