ML
     
  Уважаемый Гость!
Вы можете поддержать проект и зарегистрироваться у наших партнеров - онлайн-стратегия MyLands. При регистрации в игре Вы получите код, который сможете активировать после регистрации на pirat.ca и получить 1000 дублонов.

Ваш код:
822959f93c00d34653763d5bbf9ee9a7134af98a
 
     

Ну и молодёжь (Резо Чхеидзе) [1969 г., военный, SATRip]

Ответить на тему
 
Автор
Сообщение

Пост 20-Мар-2014 22:04

[Q] 

Мархуз

-Ну и молодёжь-- Производство: СССР, Грузияфильм
Режиссер: Резо Чхеидзе
Жанр: военный
Год выпуска: 1969 г.
Продолжительность: 01:33:02
В ролях: Лейла Кипиани, Каха Коридзе, Гоча Ломия, Тамаз Толорая, Роланд Борашвили, Нугзар Багратиони, Теймураз Баблуани, Бидзина Чхеидзе, Зураб Капианидзе, Виктор Панченко, Тамара Твалиашвили, Шалва Геджадзе, Виктор Мизин, Григол Костава, Вахтанг Нинуа, Шалва Херхеулидзе, Нино Ахаладзе, Тамара Датуашвили-Описание: Июнь 1941 года. Юные выпускники одной из тбилисских школ планируют свою будущую жизнь, не зная, что уже началась война. Ребята уходят на фронт. Только один из них уцелеет и напишет имена погибших друзей на стене рейхстага в поверженном Берлине.-Качество видео: SATRip
Контейнер: AVI
Видео кодек: XviD
Аудио кодек: MP3
Видео: 688х560; 811 Kbps; 23.976 fps; 0.088 bit/pixel
Аудио: 128 Kbps; 2 ch; 44.1 kHz
Cубтитры: отсутствуют
General
Complete name : E:\Torrent\Nu_i_molodioz_[Pirat.ca].torrent.avi
Format : AVI
Format/Info : Audio Video Interleave
File size : 633 MiB
Duration : 1h 33mn
Overall bit rate : 951 Kbps
Writing application : Lavf51.17.1
Writing library : VirtualDub build 35390/release
Video
ID : 0
Format : MPEG-4 Visual
Format profile : Advanced [email protected]
Format settings, BVOP : 2
Format settings, QPel : No
Format settings, GMC : No warppoints
Format settings, Matrix : Default (H.263)
Muxing mode : Packed bitstream
Codec ID : XVID
Codec ID/Hint : XviD
Duration : 1h 33mn
Bit rate : 811 Kbps
Width : 688 pixels
Height : 560 pixels
Display aspect ratio : 1.229
Frame rate : 23.976 fps
Color space : YUV
Chroma subsampling : 4:2:0
Bit depth : 8 bits
Scan type : Progressive
Compression mode : Lossy
Bits/(Pixel*Frame) : 0.088
Stream size : 540 MiB (85%)
Writing library : XviD 64
Audio
ID : 1
Format : MPEG Audio
Format version : Version 1
Format profile : Layer 3
Mode : Joint stereo
Mode extension : MS Stereo
Codec ID : 55
Codec ID/Hint : MP3
Duration : 1h 33mn
Bit rate mode : Constant
Bit rate : 128 Kbps
Channel(s) : 2 channels
Sampling rate : 44.1 KHz
Compression mode : Lossy
Stream size : 85.2 MiB (13%)
Alignment : Aligned on interleaves
Interleave, duration : 26 ms (0.63 video frame)
Interleave, preload duration : 522 ms
Раздача с 14.00 до 2.30 (время московское)
Download / Скачать

Хотите скачать бесплатно? Зарегистрируйтесь на сайте (ссылка на регистрацию). Pirat.ca - самый быстрый торрент трекер в рунете!

Как скачивать  ·   Что такое торрент  ·   Рейтинг и ограничения



Последний раз редактировалось: Мархуз (2014-09-26 14:58), всего редактировалось 3 раз(а)

Пост 21-Мар-2014 16:25 (спустя 18 часов)

Топик был перенесен из форума Наше кино (Трюм) в форум Советское кино
erchine
 

vovan200976

Флибустьер

Пост 26-Сен-2014 11:43 (спустя 6 месяцев 5 дней)

[Q] 

Алло когда раздавать будем!!! Лови бочку
[Профиль]  [ЛС] 

Мархуз ®

4505

Пост 26-Сен-2014 14:56 (спустя 3 часа)

[Q] 

vovan200976, время раздачи указано, так что претензии не принимаются.
be

_________________

Счастье для всех, даром, и пусть никто не уйдёт обиженный
[Профиль]  [ЛС] 

vovan200976

Флибустьер

Пост 26-Сен-2014 16:00 (спустя 1 час 3 минуты)

[Q] 

584697vovan200976, время раздачи указано, так что претензии не принимаются.
be
Не заметил!!! Спасибо!!!
[Профиль]  [ЛС] 

Мархуз ®

4505

Пост 26-Сен-2014 16:19 (спустя 19 минут)

[Q] 

vovan200976, да ничего, бывает. сам иногда тоже сначала делаю, а потом смотрю что и как. az

_________________

Счастье для всех, даром, и пусть никто не уйдёт обиженный
[Профиль]  [ЛС] 

xzxscorpxzx

Флибустьер

Пост 15-Фев-2016 11:21 (спустя 1 год 4 месяца)

[Q] 

не видел)качнем
[Профиль]  [ЛС] 
Показать сообщения:    
Ответить на тему

Текущее время: Сегодня 05:54

Часовой пояс: GMT + 4



Вы не можете начинать темы
Вы не можете отвечать на сообщения
Вы не можете редактировать свои сообщения
Вы не можете удалять свои сообщения
Вы не можете голосовать в опросах
Вы не можете прикреплять файлы к сообщениям
Вы не можете скачивать файлы

▼ Вниз