ML
     
  Уважаемый Гость!
Вы можете поддержать проект и зарегистрироваться у наших партнеров - онлайн-стратегия MyLands. При регистрации в игре Вы получите код, который сможете активировать после регистрации на pirat.ca и получить 1000 дублонов.

Ваш код:
c3360d664ceb84802c84b88ed062a5d134e2ba97
 
     

Поговорим, брат (Юрий Чулюкин) [1978 г., военный, TVRip]

Ответить на тему
 
Автор
Сообщение

Пост 22-Мар-2014 02:25

[Q] 

Мархуз

-Поговорим, брат-- Производство: СССР, Беларусьфильм при участии Мосфильм
Режиссер: Юрий Чулюкин
Жанр: военный
Год выпуска: 1978 г.
Продолжительность: 01:55:18
В ролях: Юрий Григорьев, Александр Голобородько, Афанасий Кочетков, Ирина Малышева, Людмила Смирнова, Николай Мерзликин, Алексей Ванин, Виктор Ильичев, Владимир Ван-Зо-Ли, Александр Пороховщиков, Анатолий Печников, Валерий Захарьев, Борис Гитин, Стефания Станюта.-Описание: Дальний Восток. 1922 год. В партизанский отряд Туманова прибывает из Владивостока член подпольного обкома партии Петр Кокорин и ставит перед отрядом задачу: захватить у белогвардейцев вагоны с оружием, соединиться с другими отрядами и отбить Жуковку, поддержав таким образом наступление Красной Армии. В отряде он встречает своего брата, влюбленного в медсестру отряда. Но девушка отдает свое сердце старшему. А тем временем белогвардейцам становятся известны все перемешения отряда - среди партизан оказался вражеский агент...-Качество видео: TVRip
Контейнер: AVI
Видео кодек: DivX
Аудио кодек: MP3
Видео: 496x384; 705 Kbps; 25.0 fps; 0,148 bit/pixel
Аудио: 96,8 Kbps; 1ch; 44,1 kHz
Cубтитры: отсутствуют
Приношу свои извинения за качество, но это самое лучшее из всего что нашёл. Если у кого-то найдётся лучшего качества- с удовольствием уступлю раздачу.
Специальный приз ВКФ-79 в Ашхабаде за разработку приключенческого жанра.
General
Complete name : E:\Torrent\Pogovorim_brat_[Pirat.ca].torrent.avi
Format : AVI
Format/Info : Audio Video Interleave
File size : 671 MiB
Duration : 1h 55mn
Overall bit rate mode : Variable
Overall bit rate : 814 Kbps
Writing application : Nandub v1.0rc2
Writing library : VirtualDub build 35390/release
Video
ID : 0
Format : MPEG-4 Visual
Format profile : Advanced [email protected]
Format settings, BVOP : 2
Format settings, QPel : No
Format settings, GMC : No warppoints
Format settings, Matrix : Default (H.263)
Muxing mode : Packed bitstream
Codec ID : XVID
Codec ID/Hint : XviD
Duration : 1h 55mn
Bit rate : 705 Kbps
Width : 496 pixels
Height : 384 pixels
Display aspect ratio : 1.292
Frame rate : 25.000 fps
Color space : YUV
Chroma subsampling : 4:2:0
Bit depth : 8 bits
Scan type : Progressive
Compression mode : Lossy
Bits/(Pixel*Frame) : 0.148
Stream size : 581 MiB (87%)
Writing library : XviD 64
Audio
ID : 1
Format : MPEG Audio
Format version : Version 1
Format profile : Layer 3
Codec ID : 55
Codec ID/Hint : MP3
Duration : 1h 55mn
Bit rate mode : Variable
Bit rate : 96.8 Kbps
Minimum bit rate : 96.0 Kbps
Channel(s) : 1 channel
Sampling rate : 44.1 KHz
Compression mode : Lossy
Stream size : 79.8 MiB (12%)
Alignment : Aligned on interleaves
Interleave, duration : 26 ms (0.65 video frame)
Interleave, preload duration : 530 ms
Writing library : LAME3.92
Encoding settings : -m m -V 2 -q 2 -lowpass 18.7 --vbr-old -b 96
Раздача с 15.00 до 3.30 (время московское)
Download / Скачать

Хотите скачать бесплатно? Зарегистрируйтесь на сайте (ссылка на регистрацию). Pirat.ca - самый быстрый торрент трекер в рунете!

Как скачивать  ·   Что такое торрент  ·   Рейтинг и ограничения



Последний раз редактировалось: Мархуз (2014-09-26 19:28), всего редактировалось 1 раз

Пост 22-Мар-2014 16:23 (спустя 13 часов)

Топик был перенесен из форума Наше кино (Трюм) в форум Советское кино
erchine
 
Показать сообщения:    
Ответить на тему

Текущее время: Сегодня 10:08

Часовой пояс: GMT + 4



Вы не можете начинать темы
Вы не можете отвечать на сообщения
Вы не можете редактировать свои сообщения
Вы не можете удалять свои сообщения
Вы не можете голосовать в опросах
Вы не можете прикреплять файлы к сообщениям
Вы не можете скачивать файлы

▼ Вниз