ML
     
  Уважаемый Гость!
Вы можете поддержать проект и зарегистрироваться у наших партнеров - онлайн-стратегия MyLands. При регистрации в игре Вы получите код, который сможете активировать после регистрации на pirat.ca и получить 1000 дублонов.

Ваш код:
fcd618d94adc1456bccbde5047c9cd0930e4ae4d
 
     

Свой среди чужих, чужой среди своих (Никита Михалков) [1974 г., военный, DVDRip]

Ответить на тему
 
Автор
Сообщение

Пост 22-Мар-2014 17:06

[Q] 

Мархуз

-Свой среди чужих, чужой среди своих-- Производство: СССР, Мосфильм
Режиссер: Никита Михалков
Жанр: военный
Год выпуска: 1974 г.
Продолжительность: 01:31:57
В ролях: Юрий Богатырев, Анатолий Солоницын, Сергей Шакуров, Александр Пороховщиков, Николай Пастухов, Александр Кайдановский, Никита Михалков, Александр Калягин, Николай Засухин, Константин Райкин, Александр Адабашьян, Александр Яковлев-Описание: Действие этого психологического «вестерна» происходит в 20-е годы в маленьком губернском городке на юге России. Гражданская война кончилась, но до полной победы большевиков еще далеко. Группа бандитов из бывших белых офицеров грабит поезд с золотом, на которое нужно было купить хлеб для голодающих, и пятеро друзей, бывших красных бойцов, вступают с ними в смертельную схватку.
Получается так, что подозрение в предательстве падает на одного из них, и, сбежав от товарищей, он один должен вернуть золото, чтобы доказать свою невиновность.-Качество видео: DVDRip
Контейнер: AVI
Видео кодек: XviD
Аудио кодек: MP3
Видео: 592x448; 993 kbps; 25 fps; 0.150 bit/pixel
Аудио: 128.00 kbps; 48 kHz; 2 ch
Cубтитры: отсутствуют
Общее
Полное имя : E:\Torrent\Svoy_sredi_chuzih,_chuzoy_sredi_svoih_[Pirat.ca].torrent.avi
Формат : AVI
Формат/Информация : Audio Video Interleave
Размер файла : 743 Мбайт
Продолжительность : 1 ч. 31 м.
Общий поток : 1130 Кбит/сек
Программа кодирования : VirtualDubMod 1.5.10.2 (build 2540/release)
Библиотека кодирования : VirtualDubMod build 2540/release
Видео
Идентификатор : 0
Формат : MPEG-4 Visual
Профиль формата : Advanced [email protected]
Параметр BVOP формата : 2
Параметр QPel формата : Нет
Параметр GMC формата : Без точки перехода
Параметр матрицы формата : Выборочная
Режим смешивания : Сжатый битовый поток
Идентификатор кодека : XVID
Идентификатор кодека/Подсказка : XviD
Продолжительность : 1 ч. 31 м.
Битрейт : 993 Кбит/сек
Ширина : 592 пикселя
Высота : 448 пикселей
Соотношение сторон : 4:3
Частота кадров : 25,000 кадров/сек
Цветовое пространство : YUV
Субдискретизация насыщенности : 4:2:0
Битовая глубина : 8 бит
Тип развёртки : Прогрессивная
Метод сжатия : С потерями
Бит/(Пиксели*Кадры) : 0.150
Размер потока : 653 Мбайт (88%)
Библиотека кодирования : XviD 1.2.1 (UTC 2008-12-04)
Аудио
Идентификатор : 1
Формат : MPEG Audio
Версия формата : Version 1
Профиль формата : Layer 3
Идентификатор кодека : 55
Идентификатор кодека/Подсказка : MP3
Продолжительность : 1 ч. 31 м.
Вид битрейта : Постоянный
Битрейт : 128 Кбит/сек
Каналы : 2 канала
Частота : 48,0 КГц
Метод сжатия : С потерями
Размер потока : 84,2 Мбайт (11%)
Выравнивание : Соединение по промежуткам
Продолжительность промежутка : 40 мс. (1,00 видеокадр)
Время предзагрузки промежутка : 504 мс.
Библиотека кодирования : LAME3.97
Настройки программы : -m s -V 4 -q 2 -lowpass 17 -b 128
Раздача с 15.00 до 3.30 (время московское)
Download / Скачать

Хотите скачать бесплатно? Зарегистрируйтесь на сайте (ссылка на регистрацию). Pirat.ca - самый быстрый торрент трекер в рунете!

Как скачивать  ·   Что такое торрент  ·   Рейтинг и ограничения

Пост 22-Мар-2014 19:02 (спустя 1 час 56 минут)

Топик был перенесен из форума Наше кино (Трюм) в форум Советское кино
erchine
 

NektoWaso

Флибустьер

Пост 28-Мар-2014 11:16 (спустя 5 дней)

[Q] 

потрясающее кино! шедевр!
[Профиль]  [ЛС] 

okorm

889

Пост 30-Мар-2014 19:50 (спустя 2 дня 8 часов)

[Q] 

Супер! Лови бочку
[Профиль]  [ЛС] 

Inomad

Штурман

Пост 03-Апр-2014 11:56 (спустя 3 дня)

[Q] 

Супер! Спасибо!!!
[Профиль]  [ЛС] 

urik

Морской Волк

Пост 06-Фев-2015 10:33 (спустя 10 месяцев 2 дня)

[Q] 

И фильм и музыка из фильма КЛАСС!!!! Ку три раза Автору респект!!!
[Профиль]  [ЛС] 

siski

Шкипер

Пост 26-Фев-2015 20:01 (спустя 20 дней)

[Q] 

СПАСИБО БОЛЬШОЕ, ЧТО ОТКЛИКНУЛИСЬ НА МОЮ ПРОСЬБУ. Раздающему респект!
[Профиль]  [ЛС] 

Семен

Морской Волк

Пост 25-Мар-2015 20:53 (спустя 27 дней)

[Q] 

Это не просто кино, ЭТО ШЕДЕВР НА ВСЕ ГОДА!!! Всем качать!!! Супер!
[Профиль]  [ЛС] 
Показать сообщения:    
Ответить на тему

Текущее время: Сегодня 12:48

Часовой пояс: GMT + 4



Вы не можете начинать темы
Вы не можете отвечать на сообщения
Вы не можете редактировать свои сообщения
Вы не можете удалять свои сообщения
Вы не можете голосовать в опросах
Вы не можете прикреплять файлы к сообщениям
Вы не можете скачивать файлы

▼ Вниз