ML
     
  Уважаемый Гость!
Вы можете поддержать проект и зарегистрироваться у наших партнеров - онлайн-стратегия MyLands. При регистрации в игре Вы получите код, который сможете активировать после регистрации на pirat.ca и получить 1000 дублонов.

Ваш код:
fe4e93b754a7c2b306fcfc8bc32532ea1cf59d3b
 
     

Сыщик Петербургской полиции (Виктор Кобзев) [1991 г., детектив, DVDRip]

Ответить на тему
 
Автор
Сообщение

Пост 22-Мар-2014 19:30

[Q] 

Мархуз

-Сыщик Петербургской полиции-- Производство: СССР, Свердловская киностудия
Режиссер: Виктор Кобзев
Жанр: детектив
Год выпуска: 1991 г.
Продолжительность: 01:22:05
В ролях: Пётр Щербаков, Всеволод Ларионов, Альберт Филозов, Юлиан Макаров, Олег Афанасьев, Вероника Изотова, Валерий Лысенков, Сергей Парфёнов, Александр Буреев, Георгий Махмуров, Виктор Мамаев, Пётр Юрченков, Валерий Афанасьев, Дмитрий Шилко-Описание: Иронический детектив об агенте петербургской полиции В. Путилине. Знаменитый сыщик расследует убийство графа фон Аренсберга, австрийского посла в Санкт-Петербурге.-Качество видео: DVDRip
Контейнер: AVI
Видео кодек: XviD
Аудио кодек: MP3
Видео: 640x480; 1130 kbps; 25 fps; 0.147 bit/pixel
Аудио: 128.00 kbps; 48 kHz; 2 ch
Cубтитры: отсутствуют
Общее
Полное имя : E:\Torrent\Sushik_peterburgsroi_policii_[Pirat.ca].torrent.avi
Формат : AVI
Формат/Информация : Audio Video Interleave
Размер файла : 744 Мбайт
Продолжительность : 1 ч. 22 м.
Общий поток : 1267 Кбит/сек
Программа кодирования : VirtualDubMod 1.5.10.2 (build 2540/release)
Библиотека кодирования : VirtualDubMod build 2540/release
Видео
Идентификатор : 0
Формат : MPEG-4 Visual
Профиль формата : Advanced [email protected]
Параметр BVOP формата : 2
Параметр QPel формата : Нет
Параметр GMC формата : Без точки перехода
Параметр матрицы формата : Default (MPEG)
Режим смешивания : Сжатый битовый поток
Идентификатор кодека : XVID
Идентификатор кодека/Подсказка : XviD
Продолжительность : 1 ч. 22 м.
Битрейт : 1130 Кбит/сек
Ширина : 640 пикселей
Высота : 480 пикселей
Соотношение сторон : 4:3
Частота кадров : 25,000 кадров/сек
Цветовое пространство : YUV
Субдискретизация насыщенности : 4:2:0
Битовая глубина : 8 бит
Тип развёртки : Прогрессивная
Метод сжатия : С потерями
Бит/(Пиксели*Кадры) : 0.147
Размер потока : 663 Мбайт (89%)
Библиотека кодирования : XviD 1.2.1 (UTC 2008-12-04)
Аудио
Идентификатор : 1
Формат : MPEG Audio
Версия формата : Version 1
Профиль формата : Layer 3
Режим : Joint stereo
Расширение режима : MS Stereo
Идентификатор кодека : 55
Идентификатор кодека/Подсказка : MP3
Продолжительность : 1 ч. 22 м.
Вид битрейта : Постоянный
Битрейт : 128 Кбит/сек
Каналы : 2 канала
Частота : 48,0 КГц
Метод сжатия : С потерями
Размер потока : 75,1 Мбайт (10%)
Выравнивание : Соединение по промежуткам
Продолжительность промежутка : 40 мс. (1,00 видеокадр)
Время предзагрузки промежутка : 504 мс.
Раздача с 15.00 до 3.30 (время московское)
Download / Скачать

Хотите скачать бесплатно? Зарегистрируйтесь на сайте (ссылка на регистрацию). Pirat.ca - самый быстрый торрент трекер в рунете!

Как скачивать  ·   Что такое торрент  ·   Рейтинг и ограничения

tubuc

Корсар

103

Пост 22-Мар-2014 19:49 (спустя 19 минут)

[Q] 

Классический русский детектив Автору респект!!!
[Профиль]  [ЛС] 

Пост 22-Мар-2014 20:04 (спустя 14 минут)

Топик был перенесен из форума Наше кино (Трюм) в форум Советское кино
kugesan
 
Показать сообщения:    
Ответить на тему

Текущее время: Сегодня 14:30

Часовой пояс: GMT + 4



Вы не можете начинать темы
Вы не можете отвечать на сообщения
Вы не можете редактировать свои сообщения
Вы не можете удалять свои сообщения
Вы не можете голосовать в опросах
Вы не можете прикреплять файлы к сообщениям
Вы не можете скачивать файлы

▼ Вниз