ML
     
  Уважаемый Гость!
Вы можете поддержать проект и зарегистрироваться у наших партнеров - онлайн-стратегия MyLands. При регистрации в игре Вы получите код, который сможете активировать после регистрации на pirat.ca и получить 1000 дублонов.

Ваш код:
fe4e93b754a7c2b306fcfc8bc32532ea1cf59d3b
 
     

Затерянный в Сибири (Александр Митта) [1991 г., драма, DVDRip]

Ответить на тему
 
Автор
Сообщение

Пост 24-Мар-2014 17:21

[Q] 

Мархуз

-Затерянный в Сибири -- Производство: СССР, Великобритания
Режиссер: Александр Митта
Жанр: драма
Год выпуска: 1991 г.
Продолжительность: 01:47:50
В ролях: Энтони Эндрюс, Елена Майорова, Владимир Ильин, Евгений Миронов, Наталья Гундарева, Гарик Сукачев, Алексей Жарков, Валентин Гафт, Любовь Соколова, Альберт Филозов, Зиновий Гердт, Михаил Жигалов, Николай Пастухов, Иван Бортник, Михаил Бочаров, Петр Зайченко, Вячеслав Горбунчиков, Игорь Сукачев, Юрий Соколов, Олег Ли, Леонид Тимцуник, Юрий Веялис, Харк Бом, Владимир Прозоров-Описание: Английского археолога Миллера, работавшего на раскопках в Иране, выкрали советские чекисты, по ошибке приняв за американского шпиона. После допросов на Лубянке ученый «сознался» в том, что работает не только на американскую, но и на английскую, а также на японскую разведки. Попав в ГУЛАГ, англичанин проходит через все круги ада. Но именно там ему суждено встретить настоящую любовь...-Качество видео: DVDRip
Контейнер: AVI
Видео кодек: XviD
Аудио кодек: AC3
Видео: 720x544; 1617 kbps; 25 fps; 0.165 bit/pixel
Аудио: 192.00 kbps; 48 kHz; 2 ch
Cубтитры: отсутствуют
Общее
Полное имя : E:\Torrent\Zaterjannyj_v_Sibiri_[Pirat.ca].torrent.avi
Формат : AVI
Формат/Информация : Audio Video Interleave
Размер файла : 1,37 Гбайт
Продолжительность : 1 ч. 47 м.
Общий поток : 1816 Кбит/сек
Программа кодирования : VirtualDubMod 1.5.4.1 (build 2178/release)
Библиотека кодирования : VirtualDubMod build 2178/release
Видео
Идентификатор : 0
Формат : MPEG-4 Visual
Профиль формата : Advanced [email protected]
Параметр BVOP формата : 1
Параметр QPel формата : Нет
Параметр GMC формата : Без точки перехода
Параметр матрицы формата : Выборочная
Идентификатор кодека : XVID
Идентификатор кодека/Подсказка : XviD
Продолжительность : 1 ч. 47 м.
Битрейт : 1617 Кбит/сек
Ширина : 720 пикселей
Высота : 544 пикселя
Соотношение сторон : 4:3
Частота кадров : 25,000 кадров/сек
Цветовое пространство : YUV
Субдискретизация насыщенности : 4:2:0
Битовая глубина : 8 бит
Тип развёртки : Прогрессивная
Метод сжатия : С потерями
Бит/(Пиксели*Кадры) : 0.165
Размер потока : 1,22 Гбайт (89%)
Библиотека кодирования : XviD 1.1.0 (UTC 2005-11-22)
Аудио
Идентификатор : 1
Формат : AC-3
Формат/Информация : Audio Coding 3
Расширение режима : CM (complete main)
Параметр Endianness формата : Big
Идентификатор кодека : 2000
Продолжительность : 1 ч. 47 м.
Вид битрейта : Постоянный
Битрейт : 192 Кбит/сек
Каналы : 2 канала
Расположение каналов : Front: L R
Частота : 48,0 КГц
Битовая глубина : 16 бит
Метод сжатия : С потерями
Размер потока : 148 Мбайт (11%)
Выравнивание : Разделение по промежуткам
Продолжительность промежутка : 96 мс. (2,40 видеокадра)
Время предзагрузки промежутка : 96 мс.
Язык : Russian
Раздача с 15.00 до 3.30 (время московское)
Download / Скачать

Хотите скачать бесплатно? Зарегистрируйтесь на сайте (ссылка на регистрацию). Pirat.ca - самый быстрый торрент трекер в рунете!

Как скачивать  ·   Что такое торрент  ·   Рейтинг и ограничения

Пост 24-Мар-2014 18:22 (спустя 1 час 1 минута)

Топик был перенесен из форума Наше кино (Трюм) в форум Советское кино
kugesan
 

okorm

889

Пост 30-Мар-2014 19:51 (спустя 6 дней)

[Q] 

Спасибо!!! Лови бочку
[Профиль]  [ЛС] 

Мархуз ®

4505

Пост 02-Апр-2014 17:20 (спустя 2 дня 21 час)

[Q] 

okorm, благодарю, бочка лишней никогда не бывает aa

_________________

Счастье для всех, даром, и пусть никто не уйдёт обиженный
[Профиль]  [ЛС] 
Показать сообщения:    
Ответить на тему

Текущее время: Сегодня 14:27

Часовой пояс: GMT + 4



Вы не можете начинать темы
Вы не можете отвечать на сообщения
Вы не можете редактировать свои сообщения
Вы не можете удалять свои сообщения
Вы не можете голосовать в опросах
Вы не можете прикреплять файлы к сообщениям
Вы не можете скачивать файлы

▼ Вниз