ML
     
  Уважаемый Гость!
Вы можете поддержать проект и зарегистрироваться у наших партнеров - онлайн-стратегия MyLands. При регистрации в игре Вы получите код, который сможете активировать после регистрации на pirat.ca и получить 1000 дублонов.

Ваш код:
0af2e2107bc9b5dd5ac2c09f9fc25e1a77c43887
 
     

Русь изначальная (2 серии) (Геннадий Васильев) [1985 г., история, DVDRip]

Ответить на тему
 
Автор
Сообщение

Пост 25-Мар-2014 02:16

[Q] 

Мархуз

-Русь изначальная (2 серии)-- Производство: СССР, Киностудия им. Горького
Режиссер: Геннадий Васильев
Жанр: история
Год выпуска: 1985 г.
Продолжительность: 02:18:37
В ролях: Людмила Чурсина, Борис Невзоров, Иннокентий Смоктуновский, Маргарита Терехова, Елена Кондулайнен, Арнис Лицитис, Игорь Дмитриев, Владимир Талашко, Анвар Кенжаев, Владимир Антоник-Описание: Действие картины происходит в Древней Руси — в те времена, когда славянам, объединившимся в войско под предводительством Ратибора, сына Всеслава, удалось одержать первые победы над племенами кочевников.-Качество видео: DVDRip
Контейнер: AVI
Видео кодек: XviD
Аудио кодек: MP3
Видео: 640x304; 1380 kbps; 25 fps; 0.284 bit/pixel
Аудио: 128.00 kbps; 48 kHz, 2 ch
1серия
Общее
Полное имя : E:\Torrent\Rus_iznachalnaja_[Pirat.ca].torrent\01 серия.avi
Формат : AVI
Формат/Информация : Audio Video Interleave
Размер файла : 842 Мбайт
Продолжительность : 1 ч. 17 м.
Общий поток : 1518 Кбит/сек
Программа кодирования : VirtualDubModRus 1.5.10.2 (build 2540/release)
Библиотека кодирования : VirtualDubMod build 2540/release
Видео
Идентификатор : 0
Формат : MPEG-4 Visual
Профиль формата : Advanced [email protected]
Параметр BVOP формата : 2
Параметр QPel формата : Нет
Параметр GMC формата : Без точки перехода
Параметр матрицы формата : Выборочная
Идентификатор кодека : XVID
Идентификатор кодека/Подсказка : XviD
Продолжительность : 1 ч. 17 м.
Битрейт : 1380 Кбит/сек
Ширина : 640 пикселей
Высота : 304 пикселя
Соотношение сторон : 2,105
Частота кадров : 25,000 кадров/сек
Цветовое пространство : YUV
Субдискретизация насыщенности : 4:2:0
Битовая глубина : 8 бит
Тип развёртки : Прогрессивная
Метод сжатия : С потерями
Бит/(Пиксели*Кадры) : 0.284
Размер потока : 765 Мбайт (91%)
Библиотека кодирования : XviD 64
Аудио
Идентификатор : 1
Формат : MPEG Audio
Версия формата : Version 1
Профиль формата : Layer 3
Режим : Joint stereo
Расширение режима : MS Stereo
Идентификатор кодека : 55
Идентификатор кодека/Подсказка : MP3
Продолжительность : 1 ч. 17 м.
Вид битрейта : Постоянный
Битрейт : 128 Кбит/сек
Каналы : 2 канала
Частота : 48,0 КГц
Метод сжатия : С потерями
Размер потока : 71,0 Мбайт (8%)
Выравнивание : Разделение по промежуткам
Продолжительность промежутка : 40 мс. (1,00 видеокадр)
Время предзагрузки промежутка : 500 мс.
2серия
Общее
Полное имя : E:\Torrent\Rus_iznachalnaja_[Pirat.ca].torrent\02 серия.avi
Формат : AVI
Формат/Информация : Audio Video Interleave
Размер файла : 663 Мбайт
Продолжительность : 1 ч. 1 м.
Общий поток : 1518 Кбит/сек
Программа кодирования : VirtualDubModRus 1.5.10.2 (build 2540/release)
Библиотека кодирования : VirtualDubMod build 2540/release
Видео
Идентификатор : 0
Формат : MPEG-4 Visual
Профиль формата : Advanced [email protected]
Параметр BVOP формата : 2
Параметр QPel формата : Нет
Параметр GMC формата : Без точки перехода
Параметр матрицы формата : Выборочная
Идентификатор кодека : XVID
Идентификатор кодека/Подсказка : XviD
Продолжительность : 1 ч. 1 м.
Битрейт : 1380 Кбит/сек
Ширина : 640 пикселей
Высота : 304 пикселя
Соотношение сторон : 2,105
Частота кадров : 25,000 кадров/сек
Цветовое пространство : YUV
Субдискретизация насыщенности : 4:2:0
Битовая глубина : 8 бит
Тип развёртки : Прогрессивная
Метод сжатия : С потерями
Бит/(Пиксели*Кадры) : 0.284
Размер потока : 603 Мбайт (91%)
Библиотека кодирования : XviD 64
Аудио
Идентификатор : 1
Формат : MPEG Audio
Версия формата : Version 1
Профиль формата : Layer 3
Режим : Joint stereo
Расширение режима : MS Stereo
Идентификатор кодека : 55
Идентификатор кодека/Подсказка : MP3
Продолжительность : 1 ч. 1 м.
Вид битрейта : Постоянный
Битрейт : 128 Кбит/сек
Каналы : 2 канала
Частота : 48,0 КГц
Метод сжатия : С потерями
Размер потока : 55,9 Мбайт (8%)
Выравнивание : Разделение по промежуткам
Продолжительность промежутка : 40 мс. (1,00 видеокадр)
Время предзагрузки промежутка : 500 мс.
Раздача с 15.00 до 3.30 (время московское)
Download / Скачать

Хотите скачать бесплатно? Зарегистрируйтесь на сайте (ссылка на регистрацию). Pirat.ca - самый быстрый торрент трекер в рунете!

Как скачивать  ·   Что такое торрент  ·   Рейтинг и ограничения

Пост 25-Мар-2014 10:22 (спустя 8 часов)

Топик был перенесен из форума Наше кино (Трюм) в форум Советское кино
ara1205
 

kmv01

Гроза морей

Пост 01-Апр-2014 10:44 (спустя 7 дней)

[Q] 

Хороший фильм. Спасибо!!!
[Профиль]  [ЛС] 

romzes85

Шкипер

Пост 26-Фев-2015 00:10 (спустя 10 месяцев 24 дня)

[Q] 

спасибо Всем качать!!!
[Профиль]  [ЛС] 

Семен

Морской Волк

Пост 25-Мар-2015 20:56 (спустя 27 дней)

[Q] 

Прекрасный фильм. Жаль теперь про те времена совсем не снимают ничего.Жаль!!! Автору респект!!!
[Профиль]  [ЛС] 
Показать сообщения:    
Ответить на тему

Текущее время: Сегодня 00:05

Часовой пояс: GMT + 4



Вы не можете начинать темы
Вы не можете отвечать на сообщения
Вы не можете редактировать свои сообщения
Вы не можете удалять свои сообщения
Вы не можете голосовать в опросах
Вы не можете прикреплять файлы к сообщениям
Вы не можете скачивать файлы

▼ Вниз