ML
     
  Уважаемый Гость!
Вы можете поддержать проект и зарегистрироваться у наших партнеров - онлайн-стратегия MyLands. При регистрации в игре Вы получите код, который сможете активировать после регистрации на pirat.ca и получить 1000 дублонов.

Ваш код:
193c38d0130f05c24de871678ea3ac181461757d
 
     

Непобедимый (Юрий Борецкий) [1983 г., боевик, DVDRip]

Ответить на тему
 
Автор
Сообщение

Пост 25-Мар-2014 15:50

[Q] 

Мархуз

-Непобедимый-- Производство: СССР, Киностудия им. Горького
Режиссер: Юрий Борецкий
Жанр: боевик
Год выпуска: 1983 г.
Продолжительность: 01:13:41
В ролях: Андрей Ростоцкий, Всеволод Сафонов, Хамза Умаров-Описание: Андрей Хромов, одержимый идеей создать новый вид борьбы - "самооборону без оружия", едет в Среднюю Азию, где знакомится с народной борьбой кураш. За время пребывания герой не раз попадает в трудные ситуации, из которых выйдет с честью. Действие фильма, посвяшённого памяти Анатолия Аркадьевича Харлампиева, основоположника борьбы самбо, происходит в Советской России в 20-х годах прошлого столетия.-Качество видео: DVDRip
Контейнер: AVI
Видео кодек: DivX
Аудио кодек: MP3
Видео: 464x224; 1193 kbps; 25 fps; 0.459 bit/pixel
Аудио: 128.00 kbps; 48 kHz; 2 ch
Cубтитры: отсутствуют
Общее
Полное имя : E:\Torrent\Nepobedimij_[Pirat.ca].torrent.avi
Формат : AVI
Формат/Информация : Audio Video Interleave
Размер файла : 700 Мбайт
Продолжительность : 1 ч. 13 м.
Общий поток : 1328 Кбит/сек
Программа кодирования : VirtualDubMod 1.5.4.1 (build 2178/release)
Библиотека кодирования : VirtualDubMod build 2178/release
Видео
Идентификатор : 0
Формат : MPEG-4 Visual
Параметр BVOP формата : 1
Параметр QPel формата : Нет
Параметр GMC формата : Без точки перехода
Параметр матрицы формата : Default (H.263)
Режим смешивания : Сжатый битовый поток
Идентификатор кодека : DX50
Идентификатор кодека/Подсказка : DivX 5
Продолжительность : 1 ч. 13 м.
Битрейт : 1193 Кбит/сек
Ширина : 464 пикселя
Высота : 224 пикселя
Соотношение сторон : 2,071
Частота кадров : 25,000 кадров/сек
Цветовое пространство : YUV
Субдискретизация насыщенности : 4:2:0
Битовая глубина : 8 бит
Тип развёртки : Прогрессивная
Метод сжатия : С потерями
Бит/(Пиксели*Кадры) : 0.459
Размер потока : 629 Мбайт (90%)
Библиотека кодирования : DivX 6.6.1.4
Аудио
Идентификатор : 1
Формат : MPEG Audio
Версия формата : Version 1
Профиль формата : Layer 3
Режим : Joint stereo
Расширение режима : MS Stereo
Идентификатор кодека : 55
Идентификатор кодека/Подсказка : MP3
Продолжительность : 1 ч. 13 м.
Вид битрейта : Постоянный
Битрейт : 128 Кбит/сек
Каналы : 2 канала
Частота : 48,0 КГц
Метод сжатия : С потерями
Размер потока : 67,5 Мбайт (10%)
Выравнивание : Соединение по промежуткам
Продолжительность промежутка : 80 мс. (2,00 видеокадра)
Время предзагрузки промежутка : 504 мс.
Библиотека кодирования : LAME3.97
Настройки программы : -m j -V 4 -q 2 -lowpass 17 -b 128
Язык : English
Раздача с 15.00 до 3.30 (время московское)
Download / Скачать

Хотите скачать бесплатно? Зарегистрируйтесь на сайте (ссылка на регистрацию). Pirat.ca - самый быстрый торрент трекер в рунете!

Как скачивать  ·   Что такое торрент  ·   Рейтинг и ограничения

Пост 25-Мар-2014 19:51 (спустя 4 часа)

Топик был перенесен из форума Наше кино (Трюм) в форум Советское кино
kugesan
 

burovets

Лоцман

Пост 25-Мар-2014 23:45 (спустя 7 часов)

[Q] 

Спасибо, в детстве бегал в кино раз 10 на этот фильм.
[Профиль]  [ЛС] 

Мархуз ®

4505

Пост 26-Мар-2014 04:25 (спустя 4 часа)

[Q] 

burovets, пожалуйста. aa

_________________

Счастье для всех, даром, и пусть никто не уйдёт обиженный
[Профиль]  [ЛС] 

Alex Yz

Гроза морей

Пост 06-Ноя-2015 23:40 (спустя 1 год 7 месяцев)

[Q] 

Спасибо!!!
Автору респект!!! Пиратка рулез!!!
[Профиль]  [ЛС] 

xzxscorpxzx

Флибустьер

Пост 09-Фев-2016 03:35 (спустя 3 месяца 2 дня)

[Q] 

качаем,спасибо!
[Профиль]  [ЛС] 
Показать сообщения:    
Ответить на тему

Текущее время: Сегодня 18:05

Часовой пояс: GMT + 4



Вы не можете начинать темы
Вы не можете отвечать на сообщения
Вы не можете редактировать свои сообщения
Вы не можете удалять свои сообщения
Вы не можете голосовать в опросах
Вы не можете прикреплять файлы к сообщениям
Вы не можете скачивать файлы

▼ Вниз