ML
     
  Уважаемый Гость!
Вы можете поддержать проект и зарегистрироваться у наших партнеров - онлайн-стратегия MyLands. При регистрации в игре Вы получите код, который сможете активировать после регистрации на pirat.ca и получить 1000 дублонов.

Ваш код:
e93cd9e43017f251127f220889864c05934e61c6
 
     

Болевой приём (Георгий Кузнецов) [1992 г., боевик, SATRip]

Ответить на тему
 
Автор
Сообщение

Пост 25-Мар-2014 21:30

[Q] 

Мархуз

-Болевой приём-- Производство: Россия, «Евразия»
Режиссер: Георгий Кузнецов
Жанр: боевик
Год выпуска: 1992 г.
Продолжительность: 01:16:18
В ролях: Валентин Белоусов, Алексей Кадочников, Сергей Вишневецкий, Александр Лавров, Ирина Кузнецова, Андрей Рапопорт, Вадим Зайцев, Анатолий Горгуль, Александр Данильченко, Александр Ческидов, Владимир Балагин, Раис Галямов, Андрей Уфимцев, Сет Овсепян-Описание: Почти сразу после распада Советского Союза начинается эпоха "рыночных отношений". В стране зарождается капитализм. Настает время передела собственности и сфер влияния между криминальными группировками. Разгорается война между бандами, в рядах которых часто оказываются и бывшие спортсмены. Особенно ценятся те, кто владеет навыками восточных единоборств. В это время в один провинциальный город приезжает группа ребят, исповедующих редкий вид рукопашной борьбы, именуемый "Русский стиль". Их появление очень встревожило главарей двух соперничающих банд, контролирующих город. Они пытаются заполучить этих ценных бойцов в свои ряды. В ход идут любые средства, и ребята вынуждены защищаться...-Качество видео: SATRip
Контейнер: AVI
Видео кодек: XviD
Аудио кодек: MP3
Видео: 624x480, 717 kbps; 25 fps; 0.096 bit/pixel
Аудио: 128 kbps; 44.1 kHz; 2 ch
Cубтитры: отсутствуют
Общее
Полное имя : E:\Torrent\Bolevoi_prijem_[Pirat.ca].torrent.avi
Формат : AVI
Формат/Информация : Audio Video Interleave
Размер файла : 466 Мбайт
Продолжительность : 1 ч. 16 м.
Общий поток : 854 Кбит/сек
Библиотека кодирования : VirtualDub build 35390/release
Видео
Идентификатор : 0
Формат : MPEG-4 Visual
Профиль формата : Advanced [email protected]
Параметр BVOP формата : 1
Параметр QPel формата : Нет
Параметр GMC формата : Без точки перехода
Параметр матрицы формата : Default (MPEG)
Режим смешивания : Сжатый битовый поток
Идентификатор кодека : XVID
Идентификатор кодека/Подсказка : XviD
Продолжительность : 1 ч. 16 м.
Битрейт : 717 Кбит/сек
Ширина : 624 пикселя
Высота : 480 пикселей
Соотношение сторон : 4:3
Частота кадров : 25,000 кадров/сек
Цветовое пространство : YUV
Субдискретизация насыщенности : 4:2:0
Битовая глубина : 8 бит
Тип развёртки : Прогрессивная
Метод сжатия : С потерями
Бит/(Пиксели*Кадры) : 0.096
Размер потока : 391 Мбайт (84%)
Библиотека кодирования : XviD 1.2.1 (UTC 2008-12-04)
Аудио
Идентификатор : 1
Формат : MPEG Audio
Версия формата : Version 1
Профиль формата : Layer 3
Режим : Joint stereo
Расширение режима : MS Stereo
Идентификатор кодека : 55
Идентификатор кодека/Подсказка : MP3
Продолжительность : 1 ч. 16 м.
Вид битрейта : Постоянный
Битрейт : 128 Кбит/сек
Каналы : 2 канала
Частота : 44,1 КГц
Метод сжатия : С потерями
Размер потока : 69,7 Мбайт (15%)
Выравнивание : Разделение по промежуткам
Продолжительность промежутка : 40 мс. (1,00 видеокадр)
Время предзагрузки промежутка : 500 мс.
Раздача с 15.00 до 3.30 (время московское)
Download / Скачать

Хотите скачать бесплатно? Зарегистрируйтесь на сайте (ссылка на регистрацию). Pirat.ca - самый быстрый торрент трекер в рунете!

Как скачивать  ·   Что такое торрент  ·   Рейтинг и ограничения

Пост 25-Мар-2014 22:01 (спустя 30 минут)

Топик был перенесен из форума Наше кино (Трюм) в форум Советское кино
kugesan
 
Показать сообщения:    
Ответить на тему

Текущее время: Сегодня 04:30

Часовой пояс: GMT + 4



Вы не можете начинать темы
Вы не можете отвечать на сообщения
Вы не можете редактировать свои сообщения
Вы не можете удалять свои сообщения
Вы не можете голосовать в опросах
Вы не можете прикреплять файлы к сообщениям
Вы не можете скачивать файлы

▼ Вниз