ML
     
  Уважаемый Гость!
Вы можете поддержать проект и зарегистрироваться у наших партнеров - онлайн-стратегия MyLands. При регистрации в игре Вы получите код, который сможете активировать после регистрации на pirat.ca и получить 1000 дублонов.

Ваш код:
4fbd9898b6f10799a3e8edf60f31febd2bc15453
 
     

Двойной капкан (2 серии) (Алоиз Бренч) [1985 г., детектив, DVDRip]

Ответить на тему
 
Автор
Сообщение

Пост 27-Мар-2014 00:47

[Q] 

Мархуз

-Двойной капкан (2 серии)-- Производство: СССР, Рижская киностудия
Режиссер: Алоиз Бренч
Жанр: детектив
Год выпуска: 1985 г.
Продолжительность: 02:11:07
В ролях: Эдуард Павулс, Константин Бердиков, Улдис Лиелдидж, Арийс Гейкинс, Хелга Данцберга, Альгис Матулионис, Лилита Озолиня, Юрис Леяскалнс, Янис Зариньш, Элите Сагатаускайте, Юрис Плявиньш, Петерис Гаудыньш, Гирт Яковлев, Улдис Думпис, Вилныс Бекерис, Миервалдис Озолиньш.-Описание: Во главе группы преступников, перепродающих за границу шедевры искусства и распространяющих в СССР порнографические журналы, стоят администратор ночного бара Риги Адамсон и основатель "дела" Блумберг. Милиции удается арестовать последнего, но, за недостаточностью улик, его отпускают на свободу. Адамсон не хочет делиться со своим уже "засвеченным" партнером, а Блумберг , чтобы вернуть свои деньги и заставить с собой считаться, решает прибегнуть к помощи уголовника-рецидивиста по кличке Ферзь, адрес которого узнал сидя в КПЗ. Ферзь начинает сотрудничать с Блумбергом, но новую партию "товара" - уникальную коллекцию старинных орденов задерживают на границе. Дельцы понимают, что выдать их мог только Ферзь...-Качество видео: DVDRip
Контейнер: AVI
Видео кодек: DivX
Аудио кодек: MP3
Видео: 1серия 696 x 562; 1140 kbps;25 fps; 0.117 bit/pixel
Видео: 2серия 696 x 562; 1141 kbps;25 fps; 0.117 bit/pixel
Аудио: 192 kbps; 48 kHz; 2ch
Cубтитры: отсутствуют
1серия
Общее
Полное имя : E:\Torrent\Dvojnoj_kapka_[Pirat.ca].torrent\01 серия.avi
Формат : AVI
Формат/Информация : Audio Video Interleave
Размер файла : 638 Мбайт
Продолжительность : 1 ч. 6 м.
Общий поток : 1342 Кбит/сек
Название фильма : Dvoinoi Kapkan
Программа кодирования : VirtualDubMod 1.5.10.2 (build 2540/release) VirtualDubMod build 2540/release
Правообладатель : Rip by Dimchik
Видео
Идентификатор : 0
Формат : MPEG-4 Visual
Параметр BVOP формата : 1
Параметр QPel формата : Нет
Параметр GMC формата : Без точки перехода
Параметр матрицы формата : Default (H.263)
Режим смешивания : Сжатый битовый поток
Идентификатор кодека : DX50
Идентификатор кодека/Подсказка : DivX 5
Продолжительность : 1 ч. 6 м.
Битрейт : 1140 Кбит/сек
Ширина : 696 пикселей
Высота : 562 пикселя
Соотношение сторон : 5:4
Частота кадров : 25,000 кадров/сек
Цветовое пространство : YUV
Субдискретизация насыщенности : 4:2:0
Битовая глубина : 8 бит
Тип развёртки : Прогрессивная
Метод сжатия : С потерями
Бит/(Пиксели*Кадры) : 0.117
Размер потока : 542 Мбайт (85%)
Библиотека кодирования : DivX 5.2.1 (WaffleDay) (UTC 2004-09-08)
Аудио
Идентификатор : 1
Формат : AC-3
Формат/Информация : Audio Coding 3
Расширение режима : CM (complete main)
Параметр Endianness формата : Big
Идентификатор кодека : 2000
Продолжительность : 1 ч. 6 м.
Вид битрейта : Постоянный
Битрейт : 192 Кбит/сек
Каналы : 2 канала
Расположение каналов : Front: L R
Частота : 48,0 КГц
Битовая глубина : 16 бит
Метод сжатия : С потерями
Размер потока : 91,3 Мбайт (14%)
Выравнивание : Соединение по промежуткам
Продолжительность промежутка : 40 мс. (1,00 видеокадр)
Время предзагрузки промежутка : 512 мс.
Язык : Undefined
2серия
Общее
Полное имя : E:\Torrent\Dvojnoj_kapka_[Pirat.ca].torrent\02 серия.avi
Формат : AVI
Формат/Информация : Audio Video Interleave
Размер файла : 621 Мбайт
Продолжительность : 1 ч. 4 м.
Общий поток : 1342 Кбит/сек
Название фильма : Dvoinoi Kapkan
Программа кодирования : VirtualDubMod 1.5.10.2 (build 2540/release) VirtualDubMod build 2540/release
Правообладатель : Rip by Dimchik
Видео
Идентификатор : 0
Формат : MPEG-4 Visual
Параметр BVOP формата : 1
Параметр QPel формата : Нет
Параметр GMC формата : Без точки перехода
Параметр матрицы формата : Default (H.263)
Режим смешивания : Сжатый битовый поток
Идентификатор кодека : DX50
Идентификатор кодека/Подсказка : DivX 5
Продолжительность : 1 ч. 4 м.
Битрейт : 1141 Кбит/сек
Ширина : 696 пикселей
Высота : 562 пикселя
Соотношение сторон : 5:4
Частота кадров : 25,000 кадров/сек
Цветовое пространство : YUV
Субдискретизация насыщенности : 4:2:0
Битовая глубина : 8 бит
Тип развёртки : Прогрессивная
Метод сжатия : С потерями
Бит/(Пиксели*Кадры) : 0.117
Размер потока : 527 Мбайт (85%)
Библиотека кодирования : DivX 5.2.1 (WaffleDay) (UTC 2004-09-08)
Аудио
Идентификатор : 1
Формат : AC-3
Формат/Информация : Audio Coding 3
Расширение режима : CM (complete main)
Параметр Endianness формата : Big
Идентификатор кодека : 2000
Продолжительность : 1 ч. 4 м.
Вид битрейта : Постоянный
Битрейт : 192 Кбит/сек
Каналы : 2 канала
Расположение каналов : Front: L R
Частота : 48,0 КГц
Битовая глубина : 16 бит
Метод сжатия : С потерями
Размер потока : 88,8 Мбайт (14%)
Выравнивание : Соединение по промежуткам
Продолжительность промежутка : 40 мс. (1,00 видеокадр)
Время предзагрузки промежутка : 512 мс.
Язык : Undefined
Раздача с 15.00 до 3.30 (время московское)
Download / Скачать

Хотите скачать бесплатно? Зарегистрируйтесь на сайте (ссылка на регистрацию). Pirat.ca - самый быстрый торрент трекер в рунете!

Как скачивать  ·   Что такое торрент  ·   Рейтинг и ограничения

Пост 27-Мар-2014 14:29 (спустя 13 часов)

Топик был перенесен из форума Наше кино (Трюм) в форум Советское кино
kugesan
 

Мархуз ®

4505

Пост 27-Мар-2014 14:53 (спустя 14 часов)

[Q] 

kugesan, спасибо за помощь. aa

_________________

Счастье для всех, даром, и пусть никто не уйдёт обиженный
[Профиль]  [ЛС] 
Показать сообщения:    
Ответить на тему

Текущее время: Сегодня 20:02

Часовой пояс: GMT + 4



Вы не можете начинать темы
Вы не можете отвечать на сообщения
Вы не можете редактировать свои сообщения
Вы не можете удалять свои сообщения
Вы не можете голосовать в опросах
Вы не можете прикреплять файлы к сообщениям
Вы не можете скачивать файлы

▼ Вниз