ML
     
  Уважаемый Гость!
Вы можете поддержать проект и зарегистрироваться у наших партнеров - онлайн-стратегия MyLands. При регистрации в игре Вы получите код, который сможете активировать после регистрации на pirat.ca и получить 1000 дублонов.

Ваш код:
8dcb839cf1b47e56d6dc42d17f26b3e4822e9aee
 
     

Дикое поле (Николай Гусаров) [1991 г., история, SATRip]

Ответить на тему
 
Автор
Сообщение

Пост 27-Мар-2014 14:48

[Q] 

Мархуз

-Дикое поле-- Производство: СССР, Кинокомпания «Екатеринбург»
Режиссер: Николай Гусаров
Жанр: история
Год выпуска: 1991 г.
Продолжительность: 01:45:51
В ролях: Борис Рубашкин, Николай Гусаров, Владимир Антоник, Матлюба Алимова, Олег Корчиков, Лесь Сердюк-Описание: Приключенческий фильм о казацкой вольнице в местечке "Дикое поле", отделявшем Русь от набегов внешних врагов. 16-й век… Такими были наши предки, здесь корни свободолюбия и удали русского народа. Как-то в эти края к становищу атамана Сидора пришли трое. Один из них недавно бежал из турецкого плена, где от умирающего на его руках сотника, узнал о спрятанном в этих местах сундуке с рязанской казной. Казаки, посовещавшись, решают отправиться на ее поиски, но казну уже ищут и турки, которые когда-то ее здесь и спрятали.-Качество видео: SATRip
Контейнер: AVI
Видео кодек: XviD
Аудио кодек: MP3
Видео: 704x528; 1228 kbps; 25 fps; 0.132 bit/pixel
Аудио: 128 kbps; 48 kHz; 2 ch
Cубтитры: отсутствуют
Общее
Полное имя : E:\Torrent\Dikoe_pole_[Pirat.ca].torrent.avi
Формат : AVI
Формат/Информация : Audio Video Interleave
Размер файла : 1,01 Гбайт
Продолжительность : 1 ч. 45 м.
Общий поток : 1365 Кбит/сек
Программа кодирования : VirtualDubMod 1.5.10.2 (build 2540/release)
Библиотека кодирования : VirtualDub build 35390/release
Видео
Идентификатор : 0
Формат : MPEG-4 Visual
Профиль формата : Advanced [email protected]
Параметр BVOP формата : 1
Параметр QPel формата : Нет
Параметр GMC формата : Без точки перехода
Параметр матрицы формата : Default (MPEG)
Режим смешивания : Сжатый битовый поток
Идентификатор кодека : XVID
Идентификатор кодека/Подсказка : XviD
Продолжительность : 1 ч. 45 м.
Битрейт : 1228 Кбит/сек
Ширина : 704 пикселя
Высота : 528 пикселей
Соотношение сторон : 4:3
Частота кадров : 25,000 кадров/сек
Цветовое пространство : YUV
Субдискретизация насыщенности : 4:2:0
Битовая глубина : 8 бит
Тип развёртки : Прогрессивная
Метод сжатия : С потерями
Бит/(Пиксели*Кадры) : 0.132
Размер потока : 929 Мбайт (90%)
Библиотека кодирования : XviD 1.2.1 (UTC 2008-12-04)
Аудио
Идентификатор : 1
Формат : MPEG Audio
Версия формата : Version 1
Профиль формата : Layer 3
Идентификатор кодека : 55
Идентификатор кодека/Подсказка : MP3
Продолжительность : 1 ч. 45 м.
Вид битрейта : Постоянный
Битрейт : 128 Кбит/сек
Каналы : 2 канала
Частота : 48,0 КГц
Метод сжатия : С потерями
Размер потока : 96,9 Мбайт (9%)
Выравнивание : Соединение по промежуткам
Продолжительность промежутка : 40 мс. (1,00 видеокадр)
Время предзагрузки промежутка : 504 мс.
Библиотека кодирования : LAME3.98r
Настройки программы : -m s -V 4 -q 2 -lowpass 17 -b 128
Раздача с 15.00 до 3.30 (время московское)
Download / Скачать

Хотите скачать бесплатно? Зарегистрируйтесь на сайте (ссылка на регистрацию). Pirat.ca - самый быстрый торрент трекер в рунете!

Как скачивать  ·   Что такое торрент  ·   Рейтинг и ограничения

Пост 27-Мар-2014 15:12 (спустя 23 минуты)

Топик был перенесен из форума Наше кино (Трюм) в форум Советское кино
kugesan
 

petrovich58

Корсар

Пост 28-Мар-2014 01:48 (спустя 11 часов)

[Q] 

Интересный фильм,кто не смотрел качайте.У меня он уже есть,поэтому не качаю,но комментарий оставлю.Описание немного не точное,но для любителей исторических фильмов самое то.Казачья вольница во всей красе. ay Автору респект,побольше бы таких фильмов Лови бочку
[Профиль]  [ЛС] 

Мархуз ®

4507

Пост 30-Мар-2014 02:22 (спустя 2 дня)

[Q] 

petrovich58, спасибо. aa

_________________

Счастье для всех, даром, и пусть никто не уйдёт обиженный
[Профиль]  [ЛС] 

petrovich58

Корсар

Пост 24-Фев-2015 01:07 (спустя 10 месяцев 24 дня)

[Q] 

Поздравляю всех с праздником "День защитника Отечества"!!! ad
[Профиль]  [ЛС] 

Семен

Морской Волк

Пост 25-Мар-2015 21:11 (спустя 1 месяц 1 день)

[Q] 

Приличный фильм и по своему интересен! Автору респект!!!
[Профиль]  [ЛС] 

Krocodil2012

Лоцман

Пост 01-Апр-2015 22:30 (спустя 7 дней)

[Q] 

Отличный фильм!
[Профиль]  [ЛС] 

xzxscorpxzx

Флибустьер

Пост 11-Фев-2016 09:33 (спустя 10 месяцев 9 дней)

[Q] 

неплохой фильм!
[Профиль]  [ЛС] 
Показать сообщения:    
Ответить на тему

Текущее время: Сегодня 04:15

Часовой пояс: GMT + 4



Вы не можете начинать темы
Вы не можете отвечать на сообщения
Вы не можете редактировать свои сообщения
Вы не можете удалять свои сообщения
Вы не можете голосовать в опросах
Вы не можете прикреплять файлы к сообщениям
Вы не можете скачивать файлы

▼ Вниз