ML
     
  Уважаемый Гость!
Вы можете поддержать проект и зарегистрироваться у наших партнеров - онлайн-стратегия MyLands. При регистрации в игре Вы получите код, который сможете активировать после регистрации на pirat.ca и получить 1000 дублонов.

Ваш код:
a978488e62322cd72e113ab723b8a7fdc10eb9b9
 
     

Табор уходит в небо (Эмиль Лотяну) [1975 г., драма, DVDRip]

Ответить на тему
 
Автор
Сообщение

Пост 27-Мар-2014 15:35

[Q] 

Мархуз

-Табор уходит в небо-- Производство: СССР, Мосфильм
Режиссер: Эмиль Лотяну
Жанр: драма
Год выпуска: 1975 г.
Продолжительность: 01:35:33
В ролях: Барасби Мулаев, Борислав Брондуков, Василий Симчич, Григоре Григориу, Елена Садовская, Иван Шкуря, Ляля Черная, Михаил Шишков, Нелли Волшанинова, Николай Волшанинов, Павел Андрейченко, Светлана Тома, Серджу Финити-Описание: Под цыганом Зобаром Лойко убили трех коней, многие его товарищи погибли, а он все крал и смерти не боялся, хоть один раз уже петлю ему на шею надели. Беда подстерегла его в виде красавицы Рады из другого табора. Нашла, как говорится, коса на камень - потребовала Рада, чтобы подчинился он ей, встал на колени и перед всеми правую руку поцеловал..... В фильме много прекрасных песен и танцев.-Качество видео: DVDRip
Контейнер: AVI
Видео кодек: DivX
Аудио кодек: AC3
Видео: 608x256; 1594 kbps; 25 fps; 0.410 bit/pixel
Аудио: 448 kbps; 48 kHz; 6 ch
Cубтитры: отсутствуют
Общее
Полное имя : E:\Torrent\Tabor_uhodit_v_nebo_[Pirat.ca].torrent.avi
Формат : AVI
Формат/Информация : Audio Video Interleave
Размер файла : 1,37 Гбайт
Продолжительность : 1 ч. 35 м.
Общий поток : 2049 Кбит/сек
Программа кодирования : VirtualDubMod 1.5.4.1 (build 2178/release)
Библиотека кодирования : VirtualDubMod build 2178/release
Видео
Идентификатор : 0
Формат : MPEG-4 Visual
Профиль формата : Advanced [email protected]
Параметр BVOP формата : 1
Параметр QPel формата : Нет
Параметр GMC формата : Без точки перехода
Параметр матрицы формата : Выборочная
Идентификатор кодека : XVID
Идентификатор кодека/Подсказка : XviD
Продолжительность : 1 ч. 35 м.
Битрейт : 1594 Кбит/сек
Ширина : 608 пикселей
Высота : 256 пикселей
Соотношение сторон : 2,40:1
Частота кадров : 25,000 кадров/сек
Цветовое пространство : YUV
Субдискретизация насыщенности : 4:2:0
Битовая глубина : 8 бит
Тип развёртки : Прогрессивная
Метод сжатия : С потерями
Бит/(Пиксели*Кадры) : 0.410
Размер потока : 1,06 Гбайт (78%)
Библиотека кодирования : XviD 1.2.0SMP (UTC 2006-01-08)
Аудио
Идентификатор : 1
Формат : AC-3
Формат/Информация : Audio Coding 3
Расширение режима : CM (complete main)
Параметр Endianness формата : Big
Идентификатор кодека : 2000
Продолжительность : 1 ч. 35 м.
Вид битрейта : Постоянный
Битрейт : 448 Кбит/сек
Каналы : 6 каналов
Расположение каналов : Front: L C R, Side: L R, LFE
Частота : 48,0 КГц
Битовая глубина : 16 бит
Метод сжатия : С потерями
Задержка видео : 355 мс.
Размер потока : 306 Мбайт (22%)
Выравнивание : Разделение по промежуткам
Продолжительность промежутка : 96 мс. (2,40 видеокадра)
Время предзагрузки промежутка : 96 мс.
Язык : English
1976 - Главный приз Международного кинофестиваля в Сан-Себастьяне «Золотая раковина».
1977 - Диплом за лучшую режиссуру международного кинофестиваля «Fest-77» в Белграде.
1977 - Диплом за лучший фильм международного фестиваля в Праге.
1978 - Почетный диплом технического конкурса фильмов в рамках конгресса УНИАТЕК в Париже.
1976 - По опросу журнала «Советский экран Светлана Тома была признана лучшей актрисой года.
Раздача с 15.00 до 3.30 (время московское)
Download / Скачать

Хотите скачать бесплатно? Зарегистрируйтесь на сайте (ссылка на регистрацию). Pirat.ca - самый быстрый торрент трекер в рунете!

Как скачивать  ·   Что такое торрент  ·   Рейтинг и ограничения



Последний раз редактировалось: Мархуз (2014-09-12 17:14), всего редактировалось 1 раз

Пост 27-Мар-2014 16:03 (спустя 27 минут)

Топик был перенесен из форума Наше кино (Трюм) в форум Советское кино
kugesan
 

Мархуз ®

4505

Пост 27-Мар-2014 16:37 (спустя 1 час 2 минуты)

[Q] 

Приятного просмотра

_________________

Счастье для всех, даром, и пусть никто не уйдёт обиженный
[Профиль]  [ЛС] 

NektoWaso

Флибустьер

Пост 28-Мар-2014 01:37 (спустя 9 часов)

[Q] 

отличное кино!! классика советской экранизации!
[Профиль]  [ЛС] 
Показать сообщения:    
Ответить на тему

Текущее время: Сегодня 22:05

Часовой пояс: GMT + 4



Вы не можете начинать темы
Вы не можете отвечать на сообщения
Вы не можете редактировать свои сообщения
Вы не можете удалять свои сообщения
Вы не можете голосовать в опросах
Вы не можете прикреплять файлы к сообщениям
Вы не можете скачивать файлы

▼ Вниз