ML
     
  Уважаемый Гость!
Вы можете поддержать проект и зарегистрироваться у наших партнеров - онлайн-стратегия MyLands. При регистрации в игре Вы получите код, который сможете активировать после регистрации на pirat.ca и получить 1000 дублонов.

Ваш код:
cc3be08b7507661c03e0a2f582d0da3a659ea55a
 
     

Забудьте слово "смерть" (Самвел Гаспаров) [1979 г., военный, DVDRip]

Ответить на тему
 
Автор
Сообщение

Пост 27-Мар-2014 17:14

[Q] 

Мархуз

-Забудьте слово "смерть"-- Производство: СССР, Одесская киностудия
Режиссер: Самвел Гаспаров
Жанр: военный
Год выпуска: 1979 г.
Продолжительность: 01:17:27
В ролях: Богдан Ступка, Вадим Василевский, Евгений Леонов-Гладышев, Петр Меркурьев, Константин Степанков, Олег Корчиков, Ольга Гаспарова, Александр Горбатов-Описание: 1920 г. Барон Врангель все еще в Крыму. А в небольшом украинском селе Суховка свирепствует банда Кикотя, одного из многочисленных самостийных "батек". Отважный чекист Иван Островой, посланный Губчека на помощь местным чекистам, должен проникнуть в логово банды и уничтожить ее главаря...-Качество видео: DVDRip
Контейнер: AVI
Видео кодек: XviD
Аудио кодек: MP3
Видео: 640x336; 25 fps; 1142 kbps; 0.213 bit/pixel
Аудио: 108 kbps; 48 kHz; 2 ch
Общее
Полное имя : E:\Torrent\Zabudte_slovo_smert_[Pirat.ca].torrent.avi
Формат : AVI
Формат/Информация : Audio Video Interleave
Размер файла : 700 Мбайт
Продолжительность : 1 ч. 17 м.
Режим общего битрейта : Переменный
Общий поток : 1264 Кбит/сек
Программа кодирования : VirtualDubMod 1.5.4.1 (build 2178/release)
Библиотека кодирования : VirtualDubMod build 2178/release
Видео
Идентификатор : 0
Формат : MPEG-4 Visual
Профиль формата : Advanced [email protected]
Параметр BVOP формата : 1
Параметр QPel формата : Нет
Параметр GMC формата : Без точки перехода
Параметр матрицы формата : Выборочная
Идентификатор кодека : XVID
Идентификатор кодека/Подсказка : XviD
Продолжительность : 1 ч. 17 м.
Битрейт : 1142 Кбит/сек
Ширина : 640 пикселей
Высота : 336 пикселей
Соотношение сторон : 1,905
Частота кадров : 25,000 кадров/сек
Цветовое пространство : YUV
Субдискретизация насыщенности : 4:2:0
Битовая глубина : 8 бит
Тип развёртки : Прогрессивная
Метод сжатия : С потерями
Бит/(Пиксели*Кадры) : 0.213
Размер потока : 633 Мбайт (90%)
Библиотека кодирования : XviD 1.2.1 (UTC 2008-12-04)
Аудио
Идентификатор : 1
Формат : MPEG Audio
Версия формата : Version 1
Профиль формата : Layer 3
Режим : Joint stereo
Расширение режима : MS Stereo
Идентификатор кодека : 55
Идентификатор кодека/Подсказка : MP3
Продолжительность : 1 ч. 17 м.
Вид битрейта : Переменный
Битрейт : 108 Кбит/сек
Номинальный битрейт : 128 Кбит/сек
Каналы : 2 канала
Частота : 48,0 КГц
Метод сжатия : С потерями
Размер потока : 59,9 Мбайт (9%)
Выравнивание : Соединение по промежуткам
Продолжительность промежутка : 24 мс. (0,60 видеокадр)
Время предзагрузки промежутка : 525 мс.
Библиотека кодирования : LAME3.98r
Настройки программы : -m j -V 4 -q 2 -lowpass 17 --abr 128
Язык : Russian
Раздача с 15.00 до 3.30 (время московское)
Download / Скачать

Хотите скачать бесплатно? Зарегистрируйтесь на сайте (ссылка на регистрацию). Pirat.ca - самый быстрый торрент трекер в рунете!

Как скачивать  ·   Что такое торрент  ·   Рейтинг и ограничения



Последний раз редактировалось: Мархуз (2014-09-12 17:17), всего редактировалось 1 раз

Пост 27-Мар-2014 17:34 (спустя 19 минут)

Топик был перенесен из форума Наше кино (Трюм) в форум Советское кино
kugesan
 

lkas1010

Корсар

Пост 27-Мар-2014 19:09 (спустя 1 час 54 минуты)

[Q] 

Спасибо!!! Отличный фильм!
[Профиль]  [ЛС] 

Мархуз ®

4507

Пост 02-Апр-2014 17:18 (спустя 5 дней)

[Q] 

lkas1010, фильм что надо, я на него раз 5 ходил в своё время. ay

_________________

Счастье для всех, даром, и пусть никто не уйдёт обиженный
[Профиль]  [ЛС] 

AndrayDrang

Шкипер

Пост 12-Сен-2014 20:31 (спустя 5 месяцев 10 дней)

[Q] 

Может я не понімаю чего-то, но....полное г***о.
[Профиль]  [ЛС] 

Рюрик Великий

Пост 13-Сен-2014 11:12 (спустя 14 часов)

[Q] 

Одобрямс!
[Профиль]  [ЛС] 

xzxscorpxzx

Флибустьер

Пост 15-Фев-2016 13:37 (спустя 1 год 5 месяцев)

[Q] 

отличный фильм
[Профиль]  [ЛС] 
Показать сообщения:    
Ответить на тему

Текущее время: Сегодня 05:09

Часовой пояс: GMT + 4



Вы не можете начинать темы
Вы не можете отвечать на сообщения
Вы не можете редактировать свои сообщения
Вы не можете удалять свои сообщения
Вы не можете голосовать в опросах
Вы не можете прикреплять файлы к сообщениям
Вы не можете скачивать файлы

▼ Вниз