ML
     
  Уважаемый Гость!
Вы можете поддержать проект и зарегистрироваться у наших партнеров - онлайн-стратегия MyLands. При регистрации в игре Вы получите код, который сможете активировать после регистрации на pirat.ca и получить 1000 дублонов.

Ваш код:
0af2e2107bc9b5dd5ac2c09f9fc25e1a77c43887
 
     

Приказ: огонь не открывать (Юрий Иванчук, Валерий Исаков) [1981 г., военный, DVDRip]

Ответить на тему
 
Автор
Сообщение

Пост 28-Мар-2014 14:51

[Q] 

Мархуз

-Приказ: огонь не открывать-- Производство: СССР, Киностудия им. М. Горького
Режиссер: Юрий Иванчук, Валерий Исаков
Жанр: военный
Год выпуска: 1981 г.
Продолжительность: 01:27:28
В ролях: Владлен Бирюков,Николай Иванов, Александр Потапов, Александр Силин, Евгений Герасимов, Виктор Незнанов, Эрнст Романов, Наталья Егорова-Описание: 1941 год. Батальон советских солдат занимает позицию на одном из участков восточной границы. Четвертый год солдаты несут службу на этих рубежах, где нет состояния войны, но каждую минуту грозит опасность...
Это не линия фронта, здесь не идут активные боевые действия. Японские солдаты, воюющие на стороне фашистской Германии, устраивают провокации и диверсии...-Качество видео: DVDRip
Контейнер: AVI
Видео кодек: DivX
Аудио кодек: MP3
Видео: 656x368; 982 kbps; 25.00fps; 0.163 bit/pixel
Аудио: 128 kbps; 2 ch; 48 kHz
Cубтитры: отсутствуют
Общее
Полное имя : E:\Torrent\Prikaz_ogon_ne_otkrivat_[Pirat.ca].torrent.avi
Формат : AVI
Формат/Информация : Audio Video Interleave
Размер файла : 700 Мбайт
Продолжительность : 1 ч. 27 м.
Общий поток : 1119 Кбит/сек
Режиссёр : Xamasas
Программа кодирования : VirtualDubMod 1.5.10.2 (build 2540/release)
Видео
Идентификатор : 0
Формат : MPEG-4 Visual
Параметр BVOP формата : 1
Параметр QPel формата : Нет
Параметр GMC формата : Без точки перехода
Параметр матрицы формата : Default (H.263)
Режим смешивания : Сжатый битовый поток
Идентификатор кодека : DX50
Идентификатор кодека/Подсказка : DivX 5
Продолжительность : 1 ч. 27 м.
Битрейт : 982 Кбит/сек
Ширина : 656 пикселей
Высота : 368 пикселей
Соотношение сторон : 16:9
Частота кадров : 25,000 кадров/сек
Цветовое пространство : YUV
Субдискретизация насыщенности : 4:2:0
Битовая глубина : 8 бит
Тип развёртки : Прогрессивная
Метод сжатия : С потерями
Бит/(Пиксели*Кадры) : 0.163
Размер потока : 614 Мбайт (88%)
Библиотека кодирования : DivX 5.2.1 (WaffleDay) (UTC 2004-09-08)
Аудио
Идентификатор : 1
Формат : MPEG Audio
Версия формата : Version 1
Профиль формата : Layer 3
Режим : Joint stereo
Идентификатор кодека : 55
Идентификатор кодека/Подсказка : MP3
Продолжительность : 1 ч. 27 м.
Вид битрейта : Постоянный
Битрейт : 128 Кбит/сек
Каналы : 2 канала
Частота : 48,0 КГц
Метод сжатия : С потерями
Размер потока : 80,1 Мбайт (11%)
Выравнивание : Соединение по промежуткам
Продолжительность промежутка : 40 мс. (1,00 видеокадр)
Время предзагрузки промежутка : 504 мс.
Раздача с 15.00 до 3.30 (время московское)
Download / Скачать

Хотите скачать бесплатно? Зарегистрируйтесь на сайте (ссылка на регистрацию). Pirat.ca - самый быстрый торрент трекер в рунете!

Как скачивать  ·   Что такое торрент  ·   Рейтинг и ограничения

Пост 28-Мар-2014 20:09 (спустя 5 часов)

Топик был перенесен из форума Наше кино (Трюм) в форум Советское кино
erchine
 
Показать сообщения:    
Ответить на тему

Текущее время: Сегодня 00:02

Часовой пояс: GMT + 4



Вы не можете начинать темы
Вы не можете отвечать на сообщения
Вы не можете редактировать свои сообщения
Вы не можете удалять свои сообщения
Вы не можете голосовать в опросах
Вы не можете прикреплять файлы к сообщениям
Вы не можете скачивать файлы

▼ Вниз