ML
     
  Уважаемый Гость!
Вы можете поддержать проект и зарегистрироваться у наших партнеров - онлайн-стратегия MyLands. При регистрации в игре Вы получите код, который сможете активировать после регистрации на pirat.ca и получить 1000 дублонов.

Ваш код:
c89b4b6523eaac3173e9a9c062ac1a19db575961
 
     

Приказ: перейти границу (Юрий Иванчук) [1982 г., военный, DVDRip]

Ответить на тему
 
Автор
Сообщение

Пост 28-Мар-2014 21:40

[Q] 

Мархуз

-Приказ: перейти границу-- Производство: СССР, Киностудия им. М. Горького
Режиссер: Юрий Иванчук
Жанр: военный
Год выпуска: 1982 г.
Продолжительность: 01:26:46
В ролях: Владлен Бирюков, Евгений Герасимов, Наталья Егорова, Николай Иванов, Борис Невзоров, Александр Потапов, Игорь Пушкарев, Эрнст Романов, Вячеслав Баранов, Валерий Рыжаков, Леонид Белозорович, Василий Маслаков, Виктор Незнанов, Талгат Нигматулин, Юрий Сорокин, Анатолий Шаляпин, Юрий Иванчук, Александр Силин-Описание: Батальон майора Тихонова, стоящий на страже рубежей родины, получает долгожданный приказ - перейти границу. Командование возлагает на солдат ответственную миссию - ликвидировать последний очаг войны. Несмотря на то что официально СССР уже победил фашистскую Германию, боевые действия еще не окончены. Люди продолжают погибать за страну...-Качество видео: DVDRip
Контейнер: AVI
Видео кодек: DivX
Аудио кодек: MP3
Видео: 656x368; 993 kbps; 25.00fps; 0.165 bit/pixel
Аудио: 128 kbps; 2 ch; 48 kHz
Cубтитры: отсутствуют
В 1984 году за работу в картинах "Приказ: огонь не открывать" и "Приказ: перейти границу" актер Владлен Бирюков был удостоен Государственной премии РСФСР им. братьев Васильевых.
Общее
Полное имя : E:\Torrent\Prikaz_pereyti_granicu_[Pirat.ca].torrent.avi
Формат : AVI
Формат/Информация : Audio Video Interleave
Размер файла : 700 Мбайт
Продолжительность : 1 ч. 26 м.
Общий поток : 1128 Кбит/сек
Программа кодирования : VirtualDubMod 1.5.4.1 (build 2178/release)
Библиотека кодирования : VirtualDubMod build 2178/release
Видео
Идентификатор : 0
Формат : MPEG-4 Visual
Параметр BVOP формата : 1
Параметр QPel формата : Нет
Параметр GMC формата : Без точки перехода
Параметр матрицы формата : Default (H.263)
Режим смешивания : Сжатый битовый поток
Идентификатор кодека : DX50
Идентификатор кодека/Подсказка : DivX 5
Продолжительность : 1 ч. 26 м.
Битрейт : 993 Кбит/сек
Ширина : 656 пикселей
Высота : 368 пикселей
Соотношение сторон : 16:9
Частота кадров : 25,000 кадров/сек
Цветовое пространство : YUV
Субдискретизация насыщенности : 4:2:0
Битовая глубина : 8 бит
Тип развёртки : Прогрессивная
Метод сжатия : С потерями
Бит/(Пиксели*Кадры) : 0.165
Размер потока : 616 Мбайт (88%)
Библиотека кодирования : DivX 5.2.1 (WaffleDay) (UTC 2004-09-08)
Аудио
Идентификатор : 1
Формат : MPEG Audio
Версия формата : Version 1
Профиль формата : Layer 3
Режим : Joint stereo
Идентификатор кодека : 55
Идентификатор кодека/Подсказка : MP3
Продолжительность : 1 ч. 26 м.
Вид битрейта : Постоянный
Битрейт : 128 Кбит/сек
Каналы : 2 канала
Частота : 48,0 КГц
Метод сжатия : С потерями
Размер потока : 79,4 Мбайт (11%)
Выравнивание : Соединение по промежуткам
Продолжительность промежутка : 80 мс. (2,00 видеокадра)
Время предзагрузки промежутка : 504 мс.
Библиотека кодирования : LAME3.98r
Настройки программы : -m j -V 4 -q 2 -lowpass 17 -b 128
Раздача с 15.00 до 3.30 (время московское)
Download / Скачать

Хотите скачать бесплатно? Зарегистрируйтесь на сайте (ссылка на регистрацию). Pirat.ca - самый быстрый торрент трекер в рунете!

Как скачивать  ·   Что такое торрент  ·   Рейтинг и ограничения

Пост 28-Мар-2014 23:31 (спустя 1 час 50 минут)

Топик был перенесен из форума Наше кино (Трюм) в форум Советское кино
kugesan
 
Показать сообщения:    
Ответить на тему

Текущее время: Сегодня 22:27

Часовой пояс: GMT + 4



Вы не можете начинать темы
Вы не можете отвечать на сообщения
Вы не можете редактировать свои сообщения
Вы не можете удалять свои сообщения
Вы не можете голосовать в опросах
Вы не можете прикреплять файлы к сообщениям
Вы не можете скачивать файлы

▼ Вниз