ML
     
  Уважаемый Гость!
Вы можете поддержать проект и зарегистрироваться у наших партнеров - онлайн-стратегия MyLands. При регистрации в игре Вы получите код, который сможете активировать после регистрации на pirat.ca и получить 1000 дублонов.

Ваш код:
e93cd9e43017f251127f220889864c05934e61c6
 
     

Приступить к ликвидации (2 серии) (Борис Григорьев) [1983 г., военный, DVDRip]

Ответить на тему
 
Автор
Сообщение

Пост 29-Мар-2014 15:26

[Q] 

Мархуз

-Приступить к ликвидации (2 серии)-- Производство: СССР, Киностудия им. Горького
Режиссер: Борис Григорьев
Жанр: военный
Год выпуска: 1983 г.
Продолжительность: 02:06:42
В ролях: Олег Стриженов, Михаил Жигалов, Василий Лановой, Валерий Войтюк, Георгий Юматов, Надежда Бутырцева, Александр Филиппенко, Ольга Сирина, Владимир Гусев, Леонид Белозорович-Описание: Весна 1945 года. Близится к концу Великая Отечественная война. Неспокойно в Западной Белоруссии. Там действует жестокая банда бывшего пособника нацистов Болеслава Крука. Бандиты не жалеют никого, в том числе и женщин, и детей, убивая, грабя и поджигая колхозные угодья. Свои щупальца банда протянула аж до Москвы, где имеет своих доверенных людей, снабжающих их награбленным барахлом. Раскручивая убийство одного из московских пособников бандитов, начальник отдела по борьбе с бандитизмом подполковник Иван Данилов со своей опергруппой постепенно восстанавливает всю цепочку преступлений, арестовывая, или уничтожая одного за другим членов банды…-Качество видео: DVDRip
Контейнер: AVI
Видео кодек: XviD
Аудио кодек: AC3
Видео 1серия: 608x352; 1161 kbps; 25 fps; 0.217 bit/pixel
Видео 2серия: 608x336; 1149 kbps; 25 fps; 0.225 bit/pixel
Аудио: 384 kbps;6 ch; 48 kHz
Cубтитры: отсутствуют
1серия
Общее
Полное имя : E:\Torrent\Pristupit_k_likvidacii_[Pirat.ca].torrent\01 серия.avi
Формат : AVI
Формат/Информация : Audio Video Interleave
Размер файла : 700 Мбайт
Продолжительность : 1 ч. 3 м.
Общий поток : 1552 Кбит/сек
Программа кодирования : VirtualDubMod 1.5.4.1 (build 2178/release)
Библиотека кодирования : VirtualDubMod build 2178/release
Видео
Идентификатор : 0
Формат : MPEG-4 Visual
Профиль формата : Advanced [email protected]
Параметр BVOP формата : 1
Параметр QPel формата : Нет
Параметр GMC формата : Без точки перехода
Параметр матрицы формата : Выборочная
Идентификатор кодека : XVID
Идентификатор кодека/Подсказка : XviD
Продолжительность : 1 ч. 3 м.
Битрейт : 1161 Кбит/сек
Ширина : 608 пикселей
Высота : 352 пикселя
Соотношение сторон : 1,727
Частота кадров : 25,000 кадров/сек
Цветовое пространство : YUV
Субдискретизация насыщенности : 4:2:0
Битовая глубина : 8 бит
Тип развёртки : Прогрессивная
Метод сжатия : С потерями
Бит/(Пиксели*Кадры) : 0.217
Размер потока : 524 Мбайт (75%)
Библиотека кодирования : XviD 1.2.0.dev47 (UTC 2006-11-01)
Аудио
Идентификатор : 1
Формат : AC-3
Формат/Информация : Audio Coding 3
Расширение режима : CM (complete main)
Параметр Endianness формата : Big
Идентификатор кодека : 2000
Продолжительность : 1 ч. 3 м.
Вид битрейта : Постоянный
Битрейт : 384 Кбит/сек
Каналы : 6 каналов
Расположение каналов : Front: L C R, Side: L R, LFE
Частота : 48,0 КГц
Битовая глубина : 16 бит
Метод сжатия : С потерями
Размер потока : 173 Мбайт (25%)
Выравнивание : Разделение по промежуткам
Продолжительность промежутка : 96 мс. (2,40 видеокадра)
Время предзагрузки промежутка : 96 мс.
2серия
Общее
Полное имя : E:\Torrent\Pristupit_k_likvidacii_[Pirat.ca].torrent\02 серия.avi
Формат : AVI
Формат/Информация : Audio Video Interleave
Размер файла : 700 Мбайт
Продолжительность : 1 ч. 3 м.
Общий поток : 1539 Кбит/сек
Программа кодирования : VirtualDubMod 1.5.4.1 (build 2178/release)
Библиотека кодирования : VirtualDubMod build 2178/release
Видео
Идентификатор : 0
Формат : MPEG-4 Visual
Профиль формата : Advanced [email protected]
Параметр BVOP формата : 1
Параметр QPel формата : Нет
Параметр GMC формата : Без точки перехода
Параметр матрицы формата : Выборочная
Идентификатор кодека : XVID
Идентификатор кодека/Подсказка : XviD
Продолжительность : 1 ч. 3 м.
Битрейт : 1149 Кбит/сек
Ширина : 608 пикселей
Высота : 336 пикселей
Соотношение сторон : 16:9
Частота кадров : 25,000 кадров/сек
Цветовое пространство : YUV
Субдискретизация насыщенности : 4:2:0
Битовая глубина : 8 бит
Тип развёртки : Прогрессивная
Метод сжатия : С потерями
Бит/(Пиксели*Кадры) : 0.225
Размер потока : 522 Мбайт (75%)
Библиотека кодирования : XviD 1.2.0.dev47 (UTC 2006-11-01)
Аудио
Идентификатор : 1
Формат : AC-3
Формат/Информация : Audio Coding 3
Расширение режима : CM (complete main)
Параметр Endianness формата : Big
Идентификатор кодека : 2000
Продолжительность : 1 ч. 3 м.
Вид битрейта : Постоянный
Битрейт : 384 Кбит/сек
Каналы : 6 каналов
Расположение каналов : Front: L C R, Side: L R, LFE
Частота : 48,0 КГц
Битовая глубина : 16 бит
Метод сжатия : С потерями
Размер потока : 175 Мбайт (25%)
Выравнивание : Разделение по промежуткам
Продолжительность промежутка : 96 мс. (2,40 видеокадра)
Время предзагрузки промежутка : 96 мс.
Раздача с 15.00 до 3.30 (время московское)
Download / Скачать

Хотите скачать бесплатно? Зарегистрируйтесь на сайте (ссылка на регистрацию). Pirat.ca - самый быстрый торрент трекер в рунете!

Как скачивать  ·   Что такое торрент  ·   Рейтинг и ограничения

Пост 29-Мар-2014 17:53 (спустя 2 часа 26 минут)

Топик был перенесен из форума Наше кино (Трюм) в форум Советское кино
kugesan
 
Показать сообщения:    
Ответить на тему

Текущее время: Сегодня 04:27

Часовой пояс: GMT + 4



Вы не можете начинать темы
Вы не можете отвечать на сообщения
Вы не можете редактировать свои сообщения
Вы не можете удалять свои сообщения
Вы не можете голосовать в опросах
Вы не можете прикреплять файлы к сообщениям
Вы не можете скачивать файлы

▼ Вниз