ML
     
  Уважаемый Гость!
Вы можете поддержать проект и зарегистрироваться у наших партнеров - онлайн-стратегия MyLands. При регистрации в игре Вы получите код, который сможете активировать после регистрации на pirat.ca и получить 1000 дублонов.

Ваш код:
8dcb839cf1b47e56d6dc42d17f26b3e4822e9aee
 
     

Судьба человека (Сергей Бондарчук) [1959 г., военный, DVDRip]

Ответить на тему
 
Автор
Сообщение

Пост 29-Мар-2014 20:13

[Q] 

Мархуз

-Судьба человека-- Производство: СССР, Мосфильм
Режиссер: Сергей Бондарчук
Жанр: военный
Год выпуска: 1959 г.
Продолжительность: 01:36:37
В ролях: Сергей Бондарчук, Павел Полунин, Зинаида Кириенко, Павел Волков, Юрий Аверин, Кирилл Алексеев, Павел Винников, Евгений Тетерин, Анатолий Чемодуров, Лев Борисов, Георгий Шаповалов,А. Новиков-Описание: Фильм рассказывает о русском солдате, которого война подвергла страшным испытаниям, лишила дома и семьи, бросила в концлагерь. Но судьба не сломила его дух - он выжил, отстоял своё право быть человеком, сохранил способность любить…-Качество видео: DVDRip
Контейнер: AVI
Видео кодек: XviD
Аудио кодек: AC3
Видео: 704x528; 1699 kbps; 25 fps; 0,183 bit/pixel
Аудио: 448 kbps; 6 ch; 48Hz
Cубтитры: отсутствуют
Лучший фильм 1959 года по опросу журнала «Советский экран»
Большой приз на международном кинофестивале в Москве 1959 года
Большой приз на X международном кинофестивале в Чехословакии
Большой приз на кинофестивале в Минске 1960 года
Главный приз «Хрустальная ваза»
Призы на международном кинофестивале в Мельбурне, Сиднее и Канберре
Приз на XII международном кинофестивале в Карловых Варах 1970 года
Приз на международном кинофестивале в Джорджтауне 1976 года
Общее
Полное имя : E:\Torrent\Sudba_cheloveka_[Pirat.ca].torrent.avi
Формат : AVI
Формат/Информация : Audio Video Interleave
Размер файла : 1,46 Гбайт
Продолжительность : 1 ч. 36 м.
Общий поток : 2157 Кбит/сек
Режиссёр : zim2001
Программа кодирования : VirtualDubMod 1.5.10.2 (build 2540/release)
Видео
Идентификатор : 0
Формат : MPEG-4 Visual
Профиль формата : Advanced [email protected]
Параметр BVOP формата : 2
Параметр QPel формата : Нет
Параметр GMC формата : Без точки перехода
Параметр матрицы формата : Выборочная
Идентификатор кодека : XVID
Идентификатор кодека/Подсказка : XviD
Продолжительность : 1 ч. 36 м.
Битрейт : 1699 Кбит/сек
Ширина : 704 пикселя
Высота : 528 пикселей
Соотношение сторон : 4:3
Частота кадров : 25,000 кадров/сек
Цветовое пространство : YUV
Субдискретизация насыщенности : 4:2:0
Битовая глубина : 8 бит
Тип развёртки : Прогрессивная
Метод сжатия : С потерями
Бит/(Пиксели*Кадры) : 0.183
Размер потока : 1,15 Гбайт (79%)
Библиотека кодирования : XviD 56
Аудио
Идентификатор : 1
Формат : AC-3
Формат/Информация : Audio Coding 3
Расширение режима : CM (complete main)
Параметр Endianness формата : Big
Идентификатор кодека : 2000
Продолжительность : 1 ч. 36 м.
Вид битрейта : Постоянный
Битрейт : 448 Кбит/сек
Каналы : 6 каналов
Расположение каналов : Front: L C R, Side: L R, LFE
Частота : 48,0 КГц
Битовая глубина : 16 бит
Метод сжатия : С потерями
Задержка видео : 476 мс.
Размер потока : 310 Мбайт (21%)
Выравнивание : Разделение по промежуткам
Продолжительность промежутка : 40 мс. (1,00 видеокадр)
Время предзагрузки промежутка : 500 мс.
Раздача с 15.00 до 3.30 (время московское)
Download / Скачать

Хотите скачать бесплатно? Зарегистрируйтесь на сайте (ссылка на регистрацию). Pirat.ca - самый быстрый торрент трекер в рунете!

Как скачивать  ·   Что такое торрент  ·   Рейтинг и ограничения

Пост 29-Мар-2014 20:18 (спустя 4 минуты)

Топик был перенесен из форума Наше кино (Трюм) в форум Советское кино
aleksey99
 

bolin

Флибустьер

Пост 30-Мар-2014 13:10 (спустя 16 часов)

[Q] 

Вот это фильм про реального МУЖИКА побольше бы таких людей!
[Профиль]  [ЛС] 

Мархуз ®

4507

Пост 31-Мар-2014 02:52 (спустя 13 часов)

[Q] 

bolin, согласен полностью. ay

_________________

Счастье для всех, даром, и пусть никто не уйдёт обиженный
[Профиль]  [ЛС] 

Inomad

Штурман

Пост 03-Апр-2014 11:55 (спустя 3 дня)

[Q] 

Большое спасибо
[Профиль]  [ЛС] 

Мархуз ®

4507

Пост 05-Апр-2014 00:43 (спустя 1 день 12 часов)

[Q] 

Inomad, пожалуйста. Пока такие фильмы востребованы, значит духовно люди не погибли. А значит и душа ещё осталась у большинства людей. cs

_________________

Счастье для всех, даром, и пусть никто не уйдёт обиженный
[Профиль]  [ЛС] 

alex denver71

Флибустьер

Пост 18-Янв-2015 16:26 (спустя 9 месяцев 12 дней)

[Q] 

Автору респект!!! фильм классный!!!!
[Профиль]  [ЛС] 

urik

Морской Волк

Пост 06-Фев-2015 09:56 (спустя 18 дней)

[Q] 

Большое Спасибо!!!
[Профиль]  [ЛС] 

R_O_Z_A

Морской Волк

Пост 25-Фев-2015 23:12 (спустя 19 дней)

[Q] 

Большое спасибо Супер!
[Профиль]  [ЛС] 

Семен

Морской Волк

Пост 25-Мар-2015 21:02 (спустя 27 дней)

[Q] 

Сильный фильм! И смысл большой! не как сейчас.
[Профиль]  [ЛС] 

misha7

Лоцман

Пост 06-Апр-2015 20:14 (спустя 11 дней)

[Q] 

За такую раздачу,огромнейшее спасибо!!!!
[Профиль]  [ЛС] 

polyk

Флибустьер

Пост 29-Сен-2015 23:55 (спустя 5 месяцев 23 дня)

[Q] 

один из лучших Советских фильмов!!!! Качают ВСЕ!!!
[Профиль]  [ЛС] 

sefon94

Шкипер

Пост 02-Фев-2016 20:02 (спустя 4 месяца 2 дня)

[Q] 

Спасибо!!! Супер!
[Профиль]  [ЛС] 

xzxscorpxzx

Флибустьер

Пост 09-Фев-2016 04:39 (спустя 6 дней)

[Q] 

классика,спасибо!
[Профиль]  [ЛС] 
Показать сообщения:    
Ответить на тему

Текущее время: Сегодня 04:17

Часовой пояс: GMT + 4



Вы не можете начинать темы
Вы не можете отвечать на сообщения
Вы не можете редактировать свои сообщения
Вы не можете удалять свои сообщения
Вы не можете голосовать в опросах
Вы не можете прикреплять файлы к сообщениям
Вы не можете скачивать файлы

▼ Вниз