ML
     
  Уважаемый Гость!
Вы можете поддержать проект и зарегистрироваться у наших партнеров - онлайн-стратегия MyLands. При регистрации в игре Вы получите код, который сможете активировать после регистрации на pirat.ca и получить 1000 дублонов.

Ваш код:
e6008d9811a0b6a1393c3dc51ecd7bc35637bc21
 
     

Сибириада (2 серии) (Андрей Михалков-Кончаловский) [1979 г., Кинороман, DVDRip]

Ответить на тему
 
Автор
Сообщение

Пост 29-Мар-2014 21:59

[Q] 

Мархуз

-Сибириада (2 серии)-- Производство: СССР, Мосфильм
Режиссер: Андрей Михалков-Кончаловский
Жанр: Кинороман
Год выпуска: 1979 г.
Продолжительность: 03:19:12
В ролях: Наталья Андрейченко, Сергей Шакуров, Виталий Соломин, Владимир Самойлов, Иван Дмитриев, Константин Григорьев, Людмила Гурченко, Павел Кадочников, Михаил Кононов, Елена Коренева, Евгений Леонов-Гладышев, Владимир Левитан, Никита Михалков, Руслан Микаберидзе, Максим Мунчук, Игорь Охлупин, Евгений Перов, Леонид Плешаков, Владимир Симонов, Николай Скоробогатов, Вадим Вильский, Анатолий Смыков, Александр Панкратов-Черный, Александр Потапов, Екатерина Мазурова, Виталий Леонов-Описание: Фильм повествует о судьбе двух сибирских семей - Соломиных и Устюжаниных, об их трёх поколениях в 1900-1920-е, 1930-1940-е и 1960-е годы. Действие фильма разворачивается в глухом сибирском селе Елань. В начале фильма показывается дореволюционное время и рассказывается о двух сверстниках: парне из бедной семьи Устюжаниных и девушке из богатой семьи Соломиных, которая пользуясь положением своей семьи, всячески досаждает ему. Также рассказывается о том, как отец парня занят строительством бревенчатой дороги через лес. Когда парень и девушка повзрослели, они влюбляются. Их союзу препятствует семья девушки, чьи прихвостни избивают бедного парня и бросают на произвол судьбы. Во время революции девушка уходит из семьи в стремлении связать свою жизнь с тем, кого любит по-настоящему.
Спустя много лет, парень возвращается в родную деревню со своим сыном-подростком и сообщает о том, что той богатой девушки уже давно нет на свете - она была убита много лет назад. Их сын подросток, в свою очередь, становится инженером-геологом, и возвращается в деревню своего отца, чтобы заняться поиском нефти.-Качество видео: DVDRip
Контейнер: AVI
Видео кодек: DivX
Аудио кодек: AC3
Видео 1серия: 704x512; 1492 kbps; 25 fps; 0.166 bit/pixel
Видео 2серия: 704x512; 1522 Kbps; 25 fps; 0.169 bit/pixel
Аудио: 448Kbps; 6ch; 48 kHz
Cубтитры: отсутствуют
Номинация на «Золотую пальмовую ветвь» Каннского кинофестиваля (1979).
Гран-при Жюри Каннского кинофестиваля (1979).
1серия
Общее
Полное имя : E:\Torrent\Sibiriada_[Pirat.ca].torrent\01 серия.avi
Формат : AVI
Формат/Информация : Audio Video Interleave
Размер файла : 1,37 Гбайт
Продолжительность : 1 ч. 40 м.
Общий поток : 1950 Кбит/сек
Программа кодирования : FairUse Wizard - http://fairusewizard.com
Библиотека кодирования : The best and REALLY easy backup tool
Видео
Идентификатор : 0
Формат : MPEG-4 Visual
Параметр BVOP формата : 1
Параметр QPel формата : Нет
Параметр GMC формата : Без точки перехода
Параметр матрицы формата : Default (H.263)
Режим смешивания : Сжатый битовый поток
Идентификатор кодека : DX50
Идентификатор кодека/Подсказка : DivX 5
Продолжительность : 1 ч. 40 м.
Битрейт : 1492 Кбит/сек
Ширина : 704 пикселя
Высота : 512 пикселей
Соотношение сторон : 1,375
Частота кадров : 25,000 кадров/сек
Цветовое пространство : YUV
Субдискретизация насыщенности : 4:2:0
Битовая глубина : 8 бит
Тип развёртки : Прогрессивная
Метод сжатия : С потерями
Бит/(Пиксели*Кадры) : 0.166
Размер потока : 1,05 Гбайт (77%)
Библиотека кодирования : DivX 6.2.5 (UTC 2006-07)
Аудио
Идентификатор : 1
Формат : AC-3
Формат/Информация : Audio Coding 3
Расширение режима : CM (complete main)
Параметр Endianness формата : Big
Идентификатор кодека : 2000
Продолжительность : 1 ч. 40 м.
Вид битрейта : Постоянный
Битрейт : 448 Кбит/сек
Каналы : 6 каналов
Расположение каналов : Front: L C R, Side: L R, LFE
Частота : 48,0 КГц
Битовая глубина : 16 бит
Метод сжатия : С потерями
Размер потока : 322 Мбайт (23%)
Выравнивание : Разделение по промежуткам
Продолжительность промежутка : 40 мс. (1,00 видеокадр)
Время предзагрузки промежутка : 500 мс.
2серия
Общее
Полное имя : E:\Torrent\Sibiriada_[Pirat.ca].torrent\02 серия.avi
Формат : AVI
Формат/Информация : Audio Video Interleave
Размер файла : 1,37 Гбайт
Продолжительность : 1 ч. 38 м.
Общий поток : 1980 Кбит/сек
Программа кодирования : FairUse Wizard - http://fairusewizard.com
Библиотека кодирования : The best and REALLY easy backup tool
Видео
Идентификатор : 0
Формат : MPEG-4 Visual
Параметр BVOP формата : 1
Параметр QPel формата : Нет
Параметр GMC формата : Без точки перехода
Параметр матрицы формата : Default (H.263)
Режим смешивания : Сжатый битовый поток
Идентификатор кодека : DX50
Идентификатор кодека/Подсказка : DivX 5
Продолжительность : 1 ч. 38 м.
Битрейт : 1522 Кбит/сек
Ширина : 704 пикселя
Высота : 512 пикселей
Соотношение сторон : 1,375
Частота кадров : 25,000 кадров/сек
Цветовое пространство : YUV
Субдискретизация насыщенности : 4:2:0
Битовая глубина : 8 бит
Тип развёртки : Прогрессивная
Метод сжатия : С потерями
Бит/(Пиксели*Кадры) : 0.169
Размер потока : 1,05 Гбайт (77%)
Библиотека кодирования : DivX 6.2.5 (UTC 2006-07)
Аудио
Идентификатор : 1
Формат : AC-3
Формат/Информация : Audio Coding 3
Расширение режима : CM (complete main)
Параметр Endianness формата : Big
Идентификатор кодека : 2000
Продолжительность : 1 ч. 38 м.
Вид битрейта : Постоянный
Битрейт : 448 Кбит/сек
Каналы : 6 каналов
Расположение каналов : Front: L C R, Side: L R, LFE
Частота : 48,0 КГц
Битовая глубина : 16 бит
Метод сжатия : С потерями
Размер потока : 317 Мбайт (23%)
Выравнивание : Разделение по промежуткам
Продолжительность промежутка : 40 мс. (1,00 видеокадр)
Время предзагрузки промежутка : 500 мс.
Раздача с 15.00 до 3.30 (время московское)
Download / Скачать

Хотите скачать бесплатно? Зарегистрируйтесь на сайте (ссылка на регистрацию). Pirat.ca - самый быстрый торрент трекер в рунете!

Как скачивать  ·   Что такое торрент  ·   Рейтинг и ограничения

Пост 29-Мар-2014 22:32 (спустя 32 минуты)

Топик был перенесен из форума Наше кино (Трюм) в форум Советское кино
kugesan
 

viktor41

Шкипер

Пост 30-Мар-2014 14:49 (спустя 16 часов)

[Q] 

Marhuz, Спасибо ! Автору респект!!! Супер!
[Профиль]  [ЛС] 

Мархуз ®

4505

Пост 31-Мар-2014 02:53 (спустя 12 часов)

[Q] 

viktor41, пожалуйста. aa ты, главное, качай мои раздачи почаще. ad

_________________

Счастье для всех, даром, и пусть никто не уйдёт обиженный
[Профиль]  [ЛС] 
Показать сообщения:    
Ответить на тему

Текущее время: Сегодня 02:00

Часовой пояс: GMT + 4



Вы не можете начинать темы
Вы не можете отвечать на сообщения
Вы не можете редактировать свои сообщения
Вы не можете удалять свои сообщения
Вы не можете голосовать в опросах
Вы не можете прикреплять файлы к сообщениям
Вы не можете скачивать файлы

▼ Вниз