ML
     
  Уважаемый Гость!
Вы можете поддержать проект и зарегистрироваться у наших партнеров - онлайн-стратегия MyLands. При регистрации в игре Вы получите код, который сможете активировать после регистрации на pirat.ca и получить 1000 дублонов.

Ваш код:
e6008d9811a0b6a1393c3dc51ecd7bc35637bc21
 
     

Проверка на дорогах (Алексей Герман) [1971 г., военный, DVDRip]

Ответить на тему
 
Автор
Сообщение

Пост 30-Мар-2014 14:26

[Q] 

Мархуз

-Проверка на дорогах-- Производство: СССР, Ленфильм
Режиссер: Алексей Герман
Жанр: военный
Год выпуска: 1971 г.
Продолжительность: 01:32:01
В ролях: Ролан Быков, Олег Борисов, Анатолий Солоницын, Николай Бурляев, Виктор Павлов, Майя Булгакова, Владимир Заманский, Федор Одиноков-Описание: Зима 1942 года. Командир партизанского отряда Иван Локотков принимает решение захватить фашистский эшелон с продовольствием на узловой станции. В это время в отряд попадает бывший младший сержант Красной армии Александр Лазарев, в начале войны взятый в плен и пошедший служить к немцам. Именно его Локотков отправляет в составе партизанской группы на станцию, где бывшего полицая знают как своего. "И погибнуть, Лазарев, нельзя, и без вести пропасть тоже нельзя. Тебе эшелон пригнать надо. И чтобы люди подтвердить могли"...-Качество видео: DVDRip
Контейнер: AVI
Видео кодек: XviD
Аудио кодек: MP3
Видео: 640x272; 925 kbps; 25 fps; 0.213 bit/pixel
Аудио: 128 kbps ;2 ch; 48 kHz
Cубтитры: отсутствуют
Государственная премия СССР 1988 года. Лауреаты: Эдуард Володарский, Алексей Герман, В. Юркевич, Т. Силаев (посмертно), В. Заманский.
Приз «За лучшую роль» В. Заманскому на XV МКФ фильмов в Свободе и Революции в Сопоте, Югославия (1986).
На ежегодном конкурсе журнала «Советский экран» в 1985 году, среди лучших фильмов года картина заняла 3-е место, а Ролан Быков занял 2-е место среди лучших актёров года (1986).
1987 — премия критики МКФ в Роттердаме (режиссёру А. Герману за фильмы «Проверка на дорогах», «Двадцать дней без войны», «Мой друг Иван Лапшин»)
1989 — МКФ в Сиднее.
Видео
Идентификатор : 0
Формат : MPEG-4 Visual
Профиль формата : Advanced [email protected]
Параметр BVOP формата : 2
Параметр QPel формата : Нет
Параметр GMC формата : Без точки перехода
Параметр матрицы формата : Default (H.263)
Режим смешивания : Сжатый битовый поток
Идентификатор кодека : XVID
Идентификатор кодека/Подсказка : XviD
Продолжительность : 1 ч. 32 м.
Битрейт : 925 Кбит/сек
Ширина : 640 пикселей
Высота : 272 пикселя
Соотношение сторон : 2,35:1
Частота кадров : 25,000 кадров/сек
Цветовое пространство : YUV
Субдискретизация насыщенности : 4:2:0
Битовая глубина : 8 бит
Тип развёртки : Прогрессивная
Метод сжатия : С потерями
Бит/(Пиксели*Кадры) : 0.213
Размер потока : 609 Мбайт (87%)
Библиотека кодирования : XviD 1.2.0SMP (UTC 2006-01-08)
Аудио
Идентификатор : 1
Формат : MPEG Audio
Версия формата : Version 1
Профиль формата : Layer 3
Режим : Joint stereo
Расширение режима : MS Stereo
Идентификатор кодека : 55
Идентификатор кодека/Подсказка : MP3
Продолжительность : 1 ч. 32 м.
Вид битрейта : Постоянный
Битрейт : 128 Кбит/сек
Каналы : 2 канала
Частота : 48,0 КГц
Метод сжатия : С потерями
Размер потока : 84,3 Мбайт (12%)
Выравнивание : Соединение по промежуткам
Продолжительность промежутка : 40 мс. (1,00 видеокадр)
Время предзагрузки промежутка : 504 мс.
Раздача с 15.00 до 3.30 (время московское)
Download / Скачать

Хотите скачать бесплатно? Зарегистрируйтесь на сайте (ссылка на регистрацию). Pirat.ca - самый быстрый торрент трекер в рунете!

Как скачивать  ·   Что такое торрент  ·   Рейтинг и ограничения

Пост 30-Мар-2014 14:38 (спустя 11 минут)

Топик был перенесен из форума Наше кино (Трюм) в форум Советское кино
aleksey99
 
Показать сообщения:    
Ответить на тему

Текущее время: Сегодня 01:59

Часовой пояс: GMT + 4



Вы не можете начинать темы
Вы не можете отвечать на сообщения
Вы не можете редактировать свои сообщения
Вы не можете удалять свои сообщения
Вы не можете голосовать в опросах
Вы не можете прикреплять файлы к сообщениям
Вы не можете скачивать файлы

▼ Вниз