ML
     
  Уважаемый Гость!
Вы можете поддержать проект и зарегистрироваться у наших партнеров - онлайн-стратегия MyLands. При регистрации в игре Вы получите код, который сможете активировать после регистрации на pirat.ca и получить 1000 дублонов.

Ваш код:
fe4e93b754a7c2b306fcfc8bc32532ea1cf59d3b
 
     

Трактир на Пятницкой (Александр Файнциммер) [1978 г., детектив, DVDRip]

Ответить на тему
 
Автор
Сообщение

Пост 31-Мар-2014 21:10

[Q] 

Мархуз

-Трактир на Пятницкой-- Производство: Россия, Мосфильм
Режиссер: Александр Файнциммер
Жанр: детектив
Год выпуска: 1978 г.
Продолжительность: 01:25:03
В ролях: Геннадий Корольков, Тамара Семина, Константин Григорьев, Лев Прыгунов, Николай Еременко-младший, Виктор Перевалов, Александр Галибин, Марина Дюжева, Лариса Еремина, Глеб Стриженов, Юрий Назаров, Юрий Волков, Игорь Васильев, Алексей Панькин, Юрий Потемкин, Анатолий Веденкин, Владимир Дружников, Владимир Приходько, Виктор Косых, Нина Агапова, Сергей Юртайкин, Анатолий Голик, Николай Маликов, Валерий Виноградов-Описание: Москва легендарных двадцатых годов... Сияют витрины нэпманских магазинов, переливаются огнями вывески роскошных ресторанов. А в шумном трактире на Пятницкой собираются уркаганы, гроза ночных московских улиц. Именно здесь сыщики начинают свою тайную операцию по ликвидации опасной и жестокой банды.-Качество видео: DVDRip
Контейнер: AVI
Видео кодек: DivX
Аудио кодек: MP3
Видео: 704x304; 1016 kbps; 25 fps; 0.190 bit/pixel
Аудио: 128 kbps; 2 ch; 48 kHz
Cубтитры: отсутствуют
Общее
Полное имя : E:\Torrent\Traktir_na_Pjatnickoy_[Pirat.ca].torrent.avi
Формат : AVI
Формат/Информация : Audio Video Interleave
Размер файла : 700 Мбайт
Продолжительность : 1 ч. 25 м.
Общий поток : 1151 Кбит/сек
Программа кодирования : VirtualDubMod 1.5.4.1 (build 2178/release)
Библиотека кодирования : VirtualDubMod build 2178/release
Видео
Идентификатор : 0
Формат : MPEG-4 Visual
Параметр BVOP формата : 1
Параметр QPel формата : Нет
Параметр GMC формата : Без точки перехода
Параметр матрицы формата : Default (H.263)
Режим смешивания : Сжатый битовый поток
Идентификатор кодека : DX50
Идентификатор кодека/Подсказка : DivX 5
Продолжительность : 1 ч. 25 м.
Битрейт : 1016 Кбит/сек
Ширина : 704 пикселя
Высота : 304 пикселя
Соотношение сторон : 2,35:1
Частота кадров : 25,000 кадров/сек
Цветовое пространство : YUV
Субдискретизация насыщенности : 4:2:0
Битовая глубина : 8 бит
Тип развёртки : Прогрессивная
Метод сжатия : С потерями
Бит/(Пиксели*Кадры) : 0.190
Размер потока : 618 Мбайт (88%)
Библиотека кодирования : DivX 5.2.1 (WaffleDay) (UTC 2004-09-08)
Аудио
Идентификатор : 1
Формат : MPEG Audio
Версия формата : Version 1
Профиль формата : Layer 3
Режим : Joint stereo
Расширение режима : MS Stereo
Идентификатор кодека : 55
Идентификатор кодека/Подсказка : MP3
Продолжительность : 1 ч. 25 м.
Вид битрейта : Постоянный
Битрейт : 128 Кбит/сек
Каналы : 2 канала
Частота : 48,0 КГц
Метод сжатия : С потерями
Размер потока : 77,9 Мбайт (11%)
Выравнивание : Соединение по промежуткам
Продолжительность промежутка : 80 мс. (2,00 видеокадра)
Время предзагрузки промежутка : 504 мс.
Раздача с 15.00 до 3.30 (время московское)
Download / Скачать

Хотите скачать бесплатно? Зарегистрируйтесь на сайте (ссылка на регистрацию). Pirat.ca - самый быстрый торрент трекер в рунете!

Как скачивать  ·   Что такое торрент  ·   Рейтинг и ограничения

Пост 31-Мар-2014 21:30 (спустя 20 минут)

Топик был перенесен из форума Наше кино (Трюм) в форум Советское кино
aleksey99
 
Показать сообщения:    
Ответить на тему

Текущее время: Сегодня 14:27

Часовой пояс: GMT + 4



Вы не можете начинать темы
Вы не можете отвечать на сообщения
Вы не можете редактировать свои сообщения
Вы не можете удалять свои сообщения
Вы не можете голосовать в опросах
Вы не можете прикреплять файлы к сообщениям
Вы не можете скачивать файлы

▼ Вниз